<?xml version="1.0" standalone="no"?>
<!DOCTYPE svg PUBLIC "-//W3C//DTD SVG 1.1//EN" "http://www.w3.org/Graphics/SVG/1.1/DTD/svg11.dtd">
<svg xmlns="http://www.w3.org/2000/svg">
<metadata>Copyright (C) 2015 by original authors @ fontello.com</metadata>
<defs>
<font id="fontello" horiz-adv-x="1000" >
<font-face font-family="fontello" font-weight="400" font-stretch="normal" units-per-em="1000" ascent="850" descent="-150" />
<missing-glyph horiz-adv-x="1000" />
<glyph glyph-name="user-female" unicode="&#xe800;" d="m938 129l-272 129c35 18 178 24 190 55 0 0-57 86-71 197-4 45-13 102-23 182-14 129-123 221-262 221 0 0 0 0 0 0 0 0 0 0 0 0-139 0-248-92-262-221-9-80-17-137-23-180-14-113-70-199-70-199 11-31 154-37 189-55l-271-129c0 0-63-23-63-74l0-82c0-35 27-61 63-61l875 0c35 0 62 26 62 61l0 82c0 51-62 74-62 74z m-875-154l0 80c0 4 11 12 21 16 2 0 4 0 6 2l271 129c22 9 36 31 36 54 0 26-12 47-34 57-21 12-50 16-93 23-10 2-26 6-39 8 17 41 39 96 46 160 2 16 4 34 6 53 6 33 12 76 18 127 10 98 92 166 199 166 0 0 0 0 0 0 0 0 0 0 0 0 107 0 190-68 199-166 6-51 12-94 18-127 2-19 4-37 6-53 8-64 29-119 47-160-14-2-30-6-39-8-43-7-73-11-94-23-22-10-33-31-33-57 0-23 13-45 35-54l271-129c2-2 4-2 6-2 10-4 20-12 22-16l0-80z" horiz-adv-x="1000" />
<glyph glyph-name="user-add-2" unicode="&#xe801;" d="m63 40c0 23 19 31 25 35l275 129c20 9 34 29 35 50 4 22-5 43-21 55-66 53-96 168-96 229l0 156c0 64 114 156 219 156 106 0 219-90 219-156l0-156c0-61-26-176-92-229-18-14-27-33-23-57 2-21 15-39 35-48l93-45 16 62-82 39c86 69 115 203 115 278l0 156c0 103-142 219-281 219-139 0-281-116-281-219l0-156c0-69 31-207 119-278l-275-129c0 0-63-27-63-62l0-94c0-33 27-63 63-63l687 0 0 63-687 0z m906 60l-94 0 0 94c0 17-14 31-31 31-18 0-31-14-31-31l0-94-94 0c-18 0-31-14-31-31 0-18 13-31 31-31l94 0 0-94c0-18 13-32 31-32 17 0 31 14 31 32l0 94 94 0c17 0 31 13 31 31 0 17-14 31-31 31z" horiz-adv-x="1000" />
<glyph glyph-name="user-confirm" unicode="&#xe802;" d="m63-25l0 65c0 23 17 31 25 35l275 129c20 9 34 29 35 50 2 22-5 41-23 55-64 53-94 168-94 229l0 156c0 64 114 156 219 156 106 0 219-90 219-156l0-156c0-61-26-176-94-229-16-14-25-35-23-57 4-21 17-39 37-48l158-77 37 53-170 80c88 69 117 203 117 278l0 156c0 103-144 219-281 219-139 0-281-116-281-219l0-156c0-69 29-207 117-278l-273-129c0 0-63-27-63-62l0-94c0-35 27-63 63-63l625 0-51 63z m925 231c-13 11-33 7-43-4l-134-206-82 85c-14 11-34 11-45 0-12-14-12-34 0-45l111-110c12-14 31-14 43 0 4 2 6 6 8 10l148 227c10 13 8 33-6 43z" horiz-adv-x="1000" />
<glyph glyph-name="user-delete-1" unicode="&#xe803;" d="m781 538l0 156c0 103-144 219-281 219-139 0-281-116-281-219l0-156c0-69 29-207 117-276l-273-131c0 0-63-27-63-62l0-94c0-33 27-63 63-63l593 0 0 63-593 0 0 65c0 23 17 31 25 35l275 129c20 9 34 29 35 50 2 22-5 43-23 55-64 53-94 168-94 229l0 156c0 64 114 156 219 156 106 0 219-90 219-156l0-156c0-61-26-176-94-229-16-12-25-33-23-55 4-23 17-41 37-50l17-8 28 51-20 13c88 69 117 203 117 278z m121-483l90 88c12 12 12 31 0 43-13 14-33 14-45 0l-88-88-89 88c-12 14-32 14-43 0-12-12-12-31 0-43l88-88-88-90c-12-12-12-31 0-43 11-13 31-13 43 0l89 88 88-88c12-13 32-13 45 0 12 12 12 31 0 43z" horiz-adv-x="1000" />
<glyph glyph-name="award-1" unicode="&#xe804;" d="m719 6l-440 0c-17 0-31-13-31-31 0-18 14-31 31-31l440 0c17 0 31 13 31 31 0 18-14 31-31 31z m275 787c-4 16-15 26-31 26l-152 0 0 31c0 18-14 31-32 31l-562 0c-18 0-31-13-31-31l0-31-149 0c-15 0-27-10-31-26 0-3-22-113 39-187 35-43 90-66 160-68 39-118 141-206 262-219l0-217-94 0c-17 0-31-16-31-31 0-18 14-31 31-31l252 0c18 0 31 13 31 31 0 15-13 31-31 31l-96 0 0 217c121 13 221 99 262 219 72 2 127 23 164 68 61 74 39 184 39 187z m-900-148c-28 33-29 82-29 111l121 0 0-105c0-18 2-33 4-49-43 4-75 18-96 43z m654 6c0-151-113-272-250-272-139 0-250 121-250 272l0 168 500 0 0-168z m158-6c-21-25-54-41-99-45 2 18 4 33 4 51l0 105 125 0c0-29-2-78-30-111z" horiz-adv-x="1000" />
<glyph glyph-name="phone-4" unicode="&#xe805;" d="m688 913l-375 0c-53 0-94-41-94-94l0-813c0-53 41-94 94-94l375 0c52 0 93 41 93 94l0 813c0 53-41 94-93 94z m31-907c0-17-14-31-31-31l-375 0c-18 0-32 14-32 31l0 813c0 17 14 31 32 31l375 0c17 0 31-14 31-31z m-219 125c-35 0-62-27-62-62 0-35 27-63 62-63 35 0 63 28 63 63 0 35-28 62-63 62z m63 688l-125 0c-18 0-32-14-32-31 0-18 14-32 32-32l125 0c17 0 31 14 31 32 0 17-14 31-31 31z" horiz-adv-x="1000" />
<glyph glyph-name="desktop-4" unicode="&#xe806;" d="m938 819l-875 0c-36 0-63-28-63-63l0-531c0-35 27-62 63-62l406 0 0-94-156 0c-18 0-32-14-32-31 0-18 14-32 32-32l375 0c17 0 31 14 31 32 0 17-14 31-31 31l-157 0 0 94 407 0c35 0 62 27 62 62l0 531c0 35-27 63-62 63z m0-594l-875 0 0 531 875 0z" horiz-adv-x="1000" />
<glyph glyph-name="plane-1" unicode="&#xe807;" d="m912 848c10 0 18-2 22-4 4-12 9-54-34-97l-207-207-19-20 2-27c4-59 10-164 15-254 4-80 10-157 10-162 0-4 0-6-4-10-9-12-27-31-41-47-23 61-70 189-95 260l-34 93-70-70-127-123-17-17-2-26c0-19 0-55 0-86 0-23 0-43 0-55 0 0 4 0 4-2-2 6-6 10-8 14-26 41-63 100-73 117l-7 12-14 8c-47 29-100 62-131 82 0 2 2-2 2-2l2 0c10 0 27 0 45 0 25 0 53 0 74 0 8 0 16 0 22 0l23 0 20 18 121 127 70 68-92 35c-68 25-201 74-263 98 15 13 35 31 46 41 2 2 6 4 8 4l2 0c6 0 92-6 174-12 88-6 187-12 244-16l27-2 22 20 205 205c31 33 63 37 78 37m0 63c-37 0-82-14-123-55l-205-205c-115 8-412 27-420 27-2 0-2 0-4 0-12 0-27-2-47-19-23-18-72-65-72-65-12-12-18-25-16-39 0-8 4-23 26-31 12-4 207-78 297-109l-123-127c-6 0-12 0-20 0-37 0-96 0-119 0-4 0-6 0-8 0-6 0-21 3-60-30l-2-2c-12-11-14-23-16-31 0-8 2-19 14-27 8-6 95-63 168-106 15-29 95-154 99-162 6-10 16-16 28-16 0 0 2 0 2 0 11 0 23 6 35 18 31 37 27 53 27 61 0 19 0 109 0 144l129 121c31-88 104-281 107-293 8-21 24-25 32-25 2 0 4 0 4 0 13 0 25 6 37 15 0 0 45 47 62 71 20 23 20 45 20 53 0 7-20 302-26 418l205 205c75 72 63 160 36 187-12 12-38 22-67 22z" horiz-adv-x="1000" />
<glyph glyph-name="notepad" unicode="&#xe808;" d="m830 913l-623 0c-45 0-64-34-64-65l0-125-36 0c-17 0-31-14-31-29 0-18 14-31 31-31l36 0 0-125-32 0c-17 0-31-14-31-32 0-17 14-31 31-31l32 0 0-125-34 0c-15 0-29-14-29-31 0-18 14-31 29-31l34 0 0-125-34 0c-15 0-29-14-29-32 0-15 14-29 29-29l34 0 0-127c0-53 39-63 62-63l625 0c51 0 94 41 94 94l0 813c0 53-43 94-94 94z m-625-938l0 127 31 0c18 0 32 14 32 29 0 18-14 32-32 32l-31 0 0 125 31 0c18 0 32 13 32 31 0 17-14 31-32 31l-31 0 0 125 33 0c16 0 30 14 30 31 0 18-14 32-30 32l-33 0 0 125 29 0c18 0 32 13 32 31 0 15-14 29-32 29l-29 0 0 125c0 0 0 2 0 2 0 0 0 0 2 0l498 0 0-875z m656 31c0-17-15-31-31-31l-62 0 0 875 62 0c16 0 31-14 31-31z" horiz-adv-x="1000" />
<glyph glyph-name="mustache" unicode="&#xe809;" d="m773 194c-97 0-154 45-191 76-14 12-25 21-35 31-18 14-37 33-45 35 0 0-4 0-4 0-2 0-4 0-4 0-6-2-23-17-37-29-14-12-27-23-45-37l-2-2c-43-33-95-74-189-74-69 0-137 31-178 82-27 33-57 92-37 180 2 11 10 19 19 23 10 4 22 2 30-4 0-2 21-18 58-18 18 0 35 4 55 12 33 16 55 55 80 82 33 37 70 80 133 80 43 0 82-15 117-47 35 32 72 47 115 47 63 0 102-43 135-80 25-27 49-66 82-82 18-8 37-12 55-12 37 0 60 16 62 18 8 6 20 8 30 4 9-4 17-14 19-23 16-88-14-147-41-180-41-51-111-82-182-82z m-275 205c2 0 4 0 6 0 0 0 4 0 4 0 0 0 4 0 4 0 21-4 43-22 74-51 12-8 23-19 35-29 33-28 76-63 152-63 53 0 104 22 135 59 20 25 30 55 32 88-16-4-34-8-55-8-26 0-53 6-80 18-45 19-74 68-102 97-33 35-56 59-90 59-45 0-74-28-91-49-6-8-14-12-24-12-10 0-17 4-23 12-18 21-47 49-92 49-35 0-57-22-90-59-25-29-55-78-100-97-27-12-54-18-80-18-21 0-37 4-52 8 0-33 9-65 31-88 27-37 78-59 129-59 72 0 113 32 150 61l4 2c16 13 29 25 41 35 29 23 47 39 66 43 0 0 10 2 16 2z" horiz-adv-x="1000" />
<glyph glyph-name="mouse-1" unicode="&#xe80a;" d="m502 913c-154 0-283-125-283-280l0-441c0-154 129-280 283-280 154 0 279 126 279 280l0 441c0 155-125 280-279 280z m217-721c0-119-98-217-217-217-121 0-221 98-221 217l0 441c0 119 100 217 221 217 119 0 217-98 217-217z m-219 533c-18 0-31-14-31-31l0-156c0-18 13-32 31-32 18 0 31 14 31 32l0 156c0 17-13 31-31 31z" horiz-adv-x="1000" />
<glyph glyph-name="magnet" unicode="&#xe80b;" d="m938 854l0 27c0 18-14 32-32 32l-218 0c-18 0-32-14-32-32l0-127c0 0 0 0 0 0l0-388c0-94-52-170-146-170-96 0-166 76-166 170l0 488 0 0 0 27c0 18-14 32-31 32l-219 0c-18 0-31-14-31-32l0-127c0 0 0-2 0-2l0-400c0-244 193-440 437-440 242 0 438 196 438 440l0 502z m-63-4l0-125-156 0 0 125z m-594 0l0-125-156 0 0 125z m219-875c-209 0-375 168-375 377l0 311 156 0 0-297c0-129 100-233 229-233 127 0 209 104 209 233l0 297 156 0 0-311c0-209-168-377-375-377z" horiz-adv-x="1000" />
<glyph glyph-name="energy" unicode="&#xe80c;" d="m582 850l0 0m0 0l-70-371 254 0-348-504 70 408-254 2 348 465m0 63c-2 0-4 0-6 0-11-2-17-6-27-12-4-2-8-6-12-12-2 0-4-2-4-4l-349-463c-14-19-16-45-6-64 10-22 31-35 54-35l182-2-57-334c-5-28 10-57 38-69 7-4 15-6 23-6 20 0 37 10 49 28l349 502c14 17 16 43 6 64-9 22-31 34-54 35l-182 0 57 293c2 6 2 10 2 16 0 33-28 61-61 63-2 0-2 0-2 0z" horiz-adv-x="1000" />
<glyph glyph-name="smile-1" unicode="&#xe80d;" d="m764 319c-16 8-35 0-41-16-2 0-67-140-225-142-2 0-2 0-4 0-150 0-215 136-217 142-7 16-25 24-41 16-15-6-23-26-15-41 2-8 82-180 273-180 2 0 4 0 4 0 199 2 277 174 281 180 6 15 0 35-15 41z m-264 594c-275 0-500-225-500-500 0-276 225-501 500-501 275 0 500 225 500 501 0 275-225 500-500 500z m0-938c-242 0-437 195-437 438 0 242 195 437 437 437 242 0 438-195 438-437 0-243-196-438-438-438z m-156 469c33 0 62 27 62 62 0 35-29 63-62 63-35 0-63-28-63-63 0-35 28-62 63-62z m312 0c34 0 63 27 63 62 0 35-29 63-63 63-35 0-62-28-62-63 0-35 27-62 62-62z" horiz-adv-x="1000" />
<glyph glyph-name="disc" unicode="&#xe80e;" d="m500 913c-275 0-500-225-500-500 0-276 225-501 500-501 275 0 500 225 500 501 0 275-225 500-500 500z m438-500c0-65-14-127-40-182l-277 148c4 10 6 22 6 34 0 70-57 127-127 127-14 0-27-4-41-8l-166 265c63 34 133 53 207 53 242 0 438-195 438-437z m-438 62c35 0 65-27 65-62 0-36-30-65-65-65-35 0-62 29-62 65 0 35 27 62 62 62z m-260 289l166-267c0 0 0 0-2-2l-275 148c29 47 66 88 111 121z m-177-351c0 62 13 121 37 175l277-148c-2-10-4-18-4-27 0-71 57-127 127-127 12 0 23 2 35 5l166-267c-60-31-129-49-201-49-242 0-437 195-437 438z m691-356l-166 266c2 2 2 2 2 2l277-149c-29-47-68-88-113-119z" horiz-adv-x="1000" />
<glyph glyph-name="move-2" unicode="&#xe80f;" d="m992 428l-8 8c0 0 0 0 0 0l-127 115c-9 10-23 10-33 0l-6-8c-9-7-5-23 4-31l75-68-364 0 0 365 69-74c7-10 23-14 31-4l8 6c9 10 9 23 0 33l-110 121c-4 6-8 10-13 12l0 2c-6 6-12 8-16 8-6 0-12-2-18-8l-7-8c0 0 0 0 0 0l-114-125c-7-10-7-24 0-33l8-6c10-8 24-6 33 4l67 74 0-367-367 0 74 68c10 8 13 24 4 31l-6 8c-10 10-24 10-33 0l-121-109c-6-4-10-8-12-14l-2 0c-6-6-8-10-8-15 0-6 2-12 8-18l8-8c0 0 0 0 0 0l125-113c9-8 23-8 33 0l6 8c8 9 6 23-4 33l-74 66 369 0 0-367-67 74c-9 10-23 12-33 4l-8-6c-7-9-7-23 0-33l114-125c0 0 0 0 0 0l7-8c6-6 12-8 18-8 6 0 10 2 16 8l7 8c0 0 0 0 0 0l116 127c9 10 9 24 0 33l-8 6c-8 10-24 6-31-4l-69-74 0 365 365 0-74-66c-9-10-11-24-4-33l6-8c10-8 24-8 33 0l125 113c0 0 0 0 0 0l8 8c6 6 8 12 8 18 0 3-2 9-8 15z" horiz-adv-x="1000" />
<glyph glyph-name="crop-1" unicode="&#xe810;" d="m969 131l-125 0 0 580 117 118c12 11 12 31 0 43-14 11-33 11-45 0l-115-116-582 0 0 125c0 18-14 32-31 32-18 0-32-14-32-32l0-125-125 0c-17 0-31-13-31-31 0-18 14-31 31-31l125 0 0-594c0-2 0-6 2-8 0-2 0-2 0-4 4-7 10-13 18-17 2 0 2 0 4 0 2-2 6-2 8-2l593 0 0-125c0-18 14-32 32-32 17 0 31 14 31 32l0 125 125 0c17 0 31 13 31 31 0 18-14 31-31 31z m-231 563l-519-518 0 518z m-474-563l517 518 0-518z" horiz-adv-x="1000" />
<glyph glyph-name="card" unicode="&#xe811;" d="m906 741l-812 0c-53 0-94-41-94-94l0-469c0-53 41-94 94-94l812 0c53 0 94 41 94 94l0 469c0 53-41 94-94 94z m-812-63l812 0c18 0 32-13 32-31l0-63-875 0 0 63c0 18 13 31 31 31z m812-531l-812 0c-18 0-31 14-31 31l0 281 875 0 0-281c0-17-14-31-32-31z" horiz-adv-x="1000" />
<glyph glyph-name="lab" unicode="&#xe812;" d="m791-35l-166 196 0 345 22 0c17 0 31 14 31 32 0 17-14 31-31 31l-53 0c-18 0-31-14-31-31l0-389c0-8 2-14 7-20l127-154-394 0 127 154c6 6 8 12 8 20l0 389c0 17-14 31-32 31l-52 0c-18 0-32-14-32-31 0-18 14-32 32-32l21 0 0-345-166-196c-8-10-12-23-6-35 6-10 16-18 29-18l536 0c13 0 23 8 29 18 6 12 2 25-6 35z m-322 635c35 0 62 27 62 63 0 35-27 62-62 62-35 0-63-27-63-62 0-36 28-63 63-63z m203 94c60 0 111 49 111 109 0 61-51 110-111 110-61 0-109-49-109-110 0-60 48-109 109-109z m0 156c25 0 47-21 47-47 0-25-22-47-47-47-25 0-47 22-47 47 0 26 22 47 47 47z" horiz-adv-x="1000" />
<glyph glyph-name="user-3" unicode="&#xe813;" d="m500 850c106 0 219-90 219-156l0-156c0-61-26-176-92-229-18-12-27-33-23-55 2-23 15-41 35-50l271-129c2 0 28-4 28-37l0-63-875 0 0 65c0 23 19 31 25 35l275 131c20 7 34 27 35 48 4 22-5 43-21 57-66 51-96 166-96 227l0 156c0 64 114 156 219 156m0 63c-139 0-281-116-281-219l0-156c0-69 31-207 117-276l-273-131c0 0-63-27-63-62l0-94c0-33 27-63 63-63l875 0c33 0 62 30 62 63l0 94c0 37-62 62-62 62l-272 129c86 69 115 203 115 278l0 156c0 103-142 219-281 219z" horiz-adv-x="1000" />
<glyph glyph-name="speed" unicode="&#xe814;" d="m500 877c-275 0-500-224-500-500 0-171 88-330 234-422 16-9 36-5 43 10 10 14 6 33-9 43-53 33-96 76-129 125l31 20c16 8 21 27 12 43-8 13-28 19-43 10l-32-18c-25 49-39 103-42 158l35 0c17 0 31 16 31 31 0 18-14 32-31 32l-35 0c3 58 19 113 42 162l32-18c6-4 11-6 15-6 12 0 22 6 28 16 9 16 4 35-12 43l-31 17c31 47 72 86 117 118l17-32c6-9 18-15 28-15 6 0 12 2 15 4 16 9 22 29 12 43l-17 31c48 23 101 37 158 41l0-39c0-18 13-31 31-31 16 0 31 13 31 31l0 39c57-4 112-18 160-43l-17-29c-8-14-4-34 12-43 5-2 9-4 15-4 12 0 22 6 28 15l17 30c45-32 84-71 115-116l-29-17c-16-8-19-27-12-43 6-10 16-16 28-16 6 0 9 2 15 6l30 16c23-49 39-104 43-160l-36 0c-15 0-31-14-31-32 0-17 16-31 31-31l36 0c-4-55-18-109-41-158l-32 18c-15 9-35 3-43-10-7-16-4-35 12-43l31-18c-35-53-80-95-134-129-14-10-20-29-10-43 6-10 15-15 27-15 4 0 10 2 16 4 148 91 238 252 238 425 0 276-225 500-500 500z m231-402c15 10 19 27 11 43-10 16-27 20-43 12l-170-98c-7 4-19 8-29 8-35 0-62-27-62-63 0-35 27-62 62-62 33 0 61 27 61 62 0 0 0 0 0 0z" horiz-adv-x="1000" />
<glyph glyph-name="youtube-1" unicode="&#xe815;" d="m918 727c-27 20-102 45-418 45-340 0-389-29-406-39-86-51-94-279-94-326 0-61 10-266 94-315 15-10 66-39 406-39 316 0 393 26 418 45 74 53 82 234 82 309 0 62-6 265-82 320z m-35-578c-12-8-74-33-383-33-299 0-361 21-373 29-31 18-62 115-64 262 2 148 35 256 64 273 12 6 74 29 373 29 309 0 371-25 383-33 25-19 55-121 55-269 0-151-30-239-55-258z m-180 289l-281 172c-10 6-22 6-31 0-10-6-16-16-16-28l0-343c0-12 6-24 16-28 6-4 9-4 15-4 6 0 12 0 16 4l281 172c10 6 16 16 16 28 0 9-6 21-16 27z m-265-145l0 235 189-117z" horiz-adv-x="1000" />
<glyph glyph-name="twitter-3" unicode="&#xe816;" d="m668 758c53 0 100-21 131-56 41 9 80 23 115 43-14-41-43-75-80-96 37 4 72 14 104 27-24-35-55-66-90-90 0-7 0-15 0-23 0-231-180-496-510-496-102 0-195 29-275 78 13 0 27-2 43-2 84 0 162 27 222 74-78 2-144 53-168 121 12-2 22-2 33-2 18 0 34 2 49 6-82 16-144 86-144 170 0 2 0 2 0 2 23-12 50-19 82-21-49 31-80 86-80 146 0 31 7 61 23 86 88-105 221-174 371-182-4 14-6 28-6 39 0 98 80 176 180 176m270-82l0 0m-270 145c-123 0-225-90-240-207-100 21-192 74-256 152-14 14-31 22-49 22-2 0-4 0-4 0-21-2-39-12-49-30-23-37-33-78-33-119 0-29 4-57 14-82-10-12-16-27-16-43l0-2c0-60 24-117 65-160-2-10-2-21 2-33 13-41 39-78 70-106-22-6-43-7-66-7-12 0-26 1-36 1-4 0-5 0-7 0-28 0-51-15-59-41-10-27 0-58 25-74 92-56 200-88 309-88 355 0 568 280 572 551 30 24 57 53 78 84 8 10 12 24 12 37 0 22-10 39-27 51 8 23 0 51-20 66-12 10-25 14-39 14-12 0-21-2-31-8-22-11-43-21-67-29-43 33-93 51-148 51z" horiz-adv-x="1000" />
<glyph glyph-name="tumblr-5" unicode="&#xe817;" d="m516 850l0-219 218 0 0-93-216 0-2-272c0-51 4-84 7-98 10-23 40-50 96-50 43 0 104 11 147 45l0-145c-37-18-71-25-102-33-29-6-60-10-96-10-39 0-150 0-195 117-10 22-14 51-14 92l0 354-125 0 0 95c43 0 168 26 168 217l114 0m0 63l-114 0c-35 0-62-28-62-63 0-143-80-154-106-154-33 0-62-28-62-63l0-95c0-16 6-32 18-43 11-12 27-20 44-20l63 0 0-291c0-49 6-86 18-115 27-71 95-157 253-157 39 0 77 4 112 12l6 2c29 6 66 16 107 35 22 10 35 32 35 57l0 145c0 23-13 44-35 56-8 4-18 6-27 6-14 0-26-4-37-12-38-27-84-33-110-33-25 0-35 8-37 10 0 6-4 23-4 76l0 209 156 0c36 0 63 29 63 63l0 93c0 35-27 63-63 63l-156 0 0 156c0 35-27 63-62 63z" horiz-adv-x="1000" />
<glyph glyph-name="facebook-3" unicode="&#xe818;" d="m568 834c4 0 6 0 6 0l82 0-2-93-80 0c-45 0-43-39-43-39l0-149 157 0-22-94-137 0 0-468-93 0 0 468-123 0 0 94 123 0c0 0 0 115 0 147 0 127 105 134 132 134m88 0l0 0m-88 63c-23 0-66-4-107-29-41-24-88-73-88-168l0-84-60 0c-18 0-34-6-45-18-12-12-18-29-18-45l0-94c0-35 27-62 63-62l60 0 0-406c0-34 29-63 63-63l93 0c36 0 63 29 63 63l0 406 74 0c27 0 53 19 61 45l21 94c6 19 2 39-10 54-11 16-29 26-50 26l-94 0 0 62 60 0c36 0 63 28 63 63l2 90c0 0 0 1 0 3 0 34-29 63-63 63l-80 0c-2 0-4 0-8 0z" horiz-adv-x="1000" />
<glyph glyph-name="dropbox-3" unicode="&#xe819;" d="m1000 694c-2 10-6 17-16 23l-277 174c-12 8-27 6-37-2l-170-139-170 139c-10 8-25 10-37 2l-277-174c-10-6-14-13-16-23 0-10 4-20 12-28l162-134-139-110c-8-6-13-15-12-25 0-10 6-20 14-25l127-84c-6-6-10-14-10-24l0-125c0-12 6-21 16-27l314-178c4-4 10-4 16-4 6 0 12 0 16 4l310 178c10 6 16 15 16 27l0 147c0 2 0 4 0 5l121 81c8 5 14 15 14 25 0 10-4 19-12 25l-139 110 162 134c8 8 12 18 12 28z m-281-162l-219-139-219 139 219 142z m-635 156l225 139 138-114-222-144z m141-195l220-139-125-96-213 143z m-8-241l88-58c10-8 25-6 35 2l127 95 0-275-250 141z m562-95l-250-143 0 281 129-99c6-4 14-8 20-8 6 0 12 2 17 6l84 56 0-93z m114 244l-213-143-125 96 220 139z m-118 168l-222 144 138 114 225-139z" horiz-adv-x="1000" />
<glyph glyph-name="dribbble-6" unicode="&#xe81a;" d="m500 913c-68 0-133-14-193-40-2 0-4-1-6-1-176-79-301-254-301-459 0-276 225-501 500-501 275 0 500 225 500 501 0 275-225 500-500 500z m438-500c0-4 0-8 0-10-49 12-170 35-321 4-11 29-27 60-43 91-2 2-4 6-4 8 161 63 229 145 256 198 69-79 112-180 112-291z m-159 335c-15-33-68-123-240-187-76 141-137 227-170 270 41 11 86 19 131 19 106 0 203-39 279-102z m-470 57c27-31 88-113 172-264-196-58-356-52-411-46 28 136 118 252 239 310z m-246-392c0 5 0 13 0 19 19-2 48-4 87-4 84 0 211 12 360 57 2-4 6-10 8-16 15-27 27-53 39-80-28-8-55-17-82-31-178-80-262-195-291-246-75 78-121 183-121 301z m168-344c15 29 87 150 269 232 27 12 55 22 80 30 61-151 80-274 88-323-53-21-109-33-168-33-102 0-195 35-269 94z m496-31c-10 60-32 173-84 308 144 29 259 2 289-8-22-127-100-234-205-300z" horiz-adv-x="1000" />
<glyph glyph-name="shield-1" unicode="&#xe81b;" d="m887 772c-12 10-28 16-43 16-2 0-2 0-4 0-2 0-12 0-27 0-26 0-77 2-125 13-63 16-133 86-155 100-10 8-23 12-35 12-12 0-23-4-33-12-4-2-78-82-152-100-47-11-100-13-125-13-16 0-26 0-28 0-2 0-2 0-4 0-15 0-31-6-43-16-11-12-19-29-19-47l0-156c0-576 377-653 394-655 2 0 6-2 10-2 4 0 8 2 12 2 15 2 396 79 396 655l0 156c0 18-8 35-19 47z m-43-203c0-531-346-594-346-594 0 0-342 63-342 594 0 137 0 156 0 156 0 0 12 0 32 0 31 0 87 2 140 16 86 21 170 109 170 109 0 0 88-88 176-109 53-14 107-16 139-16 19 0 31 0 31 0 0 0 0-19 0-156z m-211 6c-12 11-33 11-45 0l-88-88-88 88c-14 11-33 11-45 0-11-12-11-34 0-45l88-88-88-88c-11-12-11-33 0-45 12-12 31-12 45 0l88 88 88-88c12-12 33-12 45 0 12 12 12 33 0 45l-88 88 88 88c12 11 12 33 0 45z" horiz-adv-x="1000" />
<glyph glyph-name="tablet-2" unicode="&#xe81c;" d="m813 913l-625 0c-53 0-94-41-94-94l0-813c0-53 41-94 94-94l625 0c52 0 93 41 93 94l0 813c0 53-41 94-93 94z m31-907c0-17-14-31-31-31l-625 0c-18 0-32 14-32 31l0 813c0 17 14 31 32 31l625 0c17 0 31-14 31-31z m-344 125c-35 0-62-27-62-62 0-35 27-63 62-63 35 0 63 28 63 63 0 35-28 62-63 62z m63 688l-125 0c-18 0-32-14-32-31 0-18 14-32 32-32l125 0c17 0 31 14 31 32 0 17-14 31-31 31z" horiz-adv-x="1000" />
<glyph glyph-name="magic-1" unicode="&#xe81d;" d="m996 493l-99 150 48 176c4 10 0 21-7 29-8 8-20 12-30 8l-176-51-150 102c-10 6-21 8-31 2-10-4-18-16-18-28l-6-181-142-112c-8-6-14-17-12-29 2-12 10-21 22-25l132-47c0-2-2-2-2-2l-517-520c-14-12-14-31 0-43 6-6 14-10 21-10 8 0 16 4 22 10l519 518c2 2 2 4 4 8l53-145c4-12 14-19 25-21 0 0 2 0 4 0 10 0 20 4 26 11l111 145 180 6c9 2 21 8 25 17 6 10 6 22-2 32z m-221 7c-9 0-17-5-23-11l-86-112-47 131c-4 10-10 16-19 20l-131 47 109 86c8 5 12 13 12 23l4 139 117-76c8-6 18-8 25-6l135 39-39-133c-2-10 0-20 4-27l78-116z" horiz-adv-x="1000" />
<glyph glyph-name="sandwatch" unicode="&#xe81e;" d="m815 850l-65 0 0-211c0-101-55-180-174-240 123-63 176-139 176-252 0-74 0-137 0-172l63 0c15 0 31-14 31-31 0-18-16-32-31-32l-629 0c-16 0-32 14-32 32 0 17 16 31 32 31l64 0c0 35 0 98 0 172 0 113 51 189 174 252-117 60-172 139-172 240l0 211-66 0c-16 0-32 14-32 31 0 18 16 32 32 32l629 0c15 0 31-14 31-32 0-17-16-31-31-31z m-502-703c0-74 0-137 0-172l377 0c0 35 0 98 0 172 0 86-34 154-190 219-156-65-187-133-187-219z m375 703l-373 0 0-211c0-60 19-137 185-205 166 68 188 145 188 205z" horiz-adv-x="1000" />
<glyph glyph-name="graduation-cap-3" unicode="&#xe81f;" d="m967 233l0 252 15 8c12 5 18 15 18 27 0 12-6 23-16 27l-470 252c-10 6-22 6-30 0l-468-252c-10-6-16-15-16-27 0-12 6-22 16-27l207-110c-4-4-6-10-6-15l0-264c0-10 4-18 12-23 5-6 70-59 269-59 197 0 266 49 272 55 7 5 11 15 11 25l0 271c0 4 0 8-2 12l125 67 0-219c-17-12-29-31-29-55 0-33 27-62 63-62 33 0 62 29 62 62 0 24-14 43-33 55z m-248-113c-26-12-90-36-221-36-131 0-195 26-219 38l0 230 203-107c6-2 10-4 16-4 4 0 10 2 14 4l207 109z m-221 187l-402 213 402 217 404-215z" horiz-adv-x="1000" />
<glyph glyph-name="ghost" unicode="&#xe820;" d="m500 913c-225 0-406-196-406-436l0-533c0-14 8-26 19-30 4-2 8-2 12-2 10 0 18 4 23 10l118 131 93-127c6-10 14-14 24-14l0 0c12 0 19 4 25 12l94 125 90-125c6-8 15-12 25-12 10 0 20 4 26 12l93 129 116-131c7-10 21-12 35-8 11 4 19 16 19 30l0 533c0 240-181 436-406 436z m344-887l-86 97c-8 6-16 10-26 10-9 0-17-6-23-11l-92-126-90 124c-5 9-15 13-25 13l0 0c-10 0-20-4-25-11l-92-126-90 126c-6 5-16 11-23 11-2 0-2 0-2 0-10 0-18-4-24-10l-90-99 0 453c0 205 155 373 344 373 190 0 344-168 344-373l0-451z m-188 543c-35 0-62-28-62-63 0-35 27-62 62-62 35 0 63 27 63 62 0 35-28 63-63 63z m-312 0c-35 0-63-28-63-63 0-35 28-62 63-62 35 0 62 27 62 62 0 35-27 63-62 63z" horiz-adv-x="1000" />
<glyph glyph-name="game" unicode="&#xe821;" d="m727 838c-26 12-49 24-71 34-56 29-105 41-154 41-96 0-162-55-203-96l-35-35-24-24-33-33-53-53-56-58c-110-108-127-219-57-358 10-21 22-45 33-70 63-135 129-274 237-274 2 0 5 0 7 0 112 8 143 151 170 276 4 19 8 39 12 57 8 29 23 46 63 87l5 6 4 2 4 4 4 6c41 39 59 55 88 63 18 3 37 7 57 11 125 28 267 59 275 170 10 112-135 180-273 244z m209-238c-6-78-180-102-284-127-46-12-74-37-117-78-2-4-6-6-8-10-4-2-5-6-9-8-41-43-67-70-78-117-26-103-49-277-127-283 0 0-2 0-4 0-82 0-153 188-213 309-63 125-35 207 45 285 15 15 33 35 56 58 24 24 53 53 86 86 24 24 43 43 59 59 49 49 99 78 160 78 37 0 78-12 125-35 123-63 316-133 309-217z m-469-31l62 0 0 62-62 0z m0 94l62 0 0 62-62 0z m94 0l62 0 0 62-62 0z m0-94l62 0 0 62-62 0z m-239-188l24 24c11 11 11 31 0 43-12 11-31 11-43 0l-24-24-23 24c-12 11-31 11-43 0-12-12-12-32 0-43l23-24-23-23c-12-12-12-31 0-43 12-12 31-12 43 0l23 25 26-25c11-12 29-12 41 0 11 12 11 31 0 43z" horiz-adv-x="1000" />
<glyph glyph-name="fire-4" unicode="&#xe822;" d="m496-88c-234 0-402 165-402 389 0 119 72 248 74 254 6 12 20 18 31 16 14-2 24-10 28-24 0 0 19-72 45-113 15-25 33-45 52-59-11 57-23 145-6 233 45 242 237 301 245 303 9 4 21 0 29-8 8-6 12-18 10-28 0-2-32-171 35-316 6-14 15-29 23-45 4 22 8 43 14 65 23 86 88 115 90 117 11 6 23 4 33-4 8-8 14-20 12-29-2-4-10-61 39-145 45-74 58-123 58-217 0-224-172-389-410-389z m-305 544c-17-43-35-100-35-155 0-187 141-326 340-326 201 0 348 139 348 326 0 82-10 119-49 186-25 43-39 82-45 113-6-10-12-23-16-37-19-66-15-145-15-147 2-13-8-25-20-31-13-4-29 0-37 12-2 4-56 82-82 135-51 109-51 228-45 297-51-30-131-96-156-233-23-133 23-265 25-267 4-10 2-22-6-32-7-7-19-11-31-9-4 2-92 23-148 113-12 17-20 35-28 55z" horiz-adv-x="1000" />
<glyph glyph-name="glasses-1" unicode="&#xe823;" d="m1002 276c-2 14-53 312-61 359 0 6-1 10-1 16-6 47-18 137-163 137-17 0-31-14-31-32 0-17 14-31 31-31 90 0 94-37 100-82 2-6 2-12 4-18 2-21 19-109 33-197-37 29-82 45-131 45-80 0-152-43-189-105-20 5-51 15-94 15-43 0-72-10-92-17-39 64-107 107-187 107-53 0-102-17-139-49 14 88 31 178 35 201 0 6 2 12 2 18 6 45 12 82 100 82 17 0 31 14 31 31 0 18-14 32-31 32-145 0-156-90-162-137 0-6 0-10-2-16-8-47-55-344-57-357 0-2 0-6 2-8 0-6-2-10-2-14 0-121 102-218 223-218 119 0 217 97 217 218 0 18-2 35-6 53 11 4 35 12 68 12 31 0 55-6 68-12-3-18-7-35-7-53 0-121 101-218 222-218 119 0 217 97 217 218 0 2 0 6 0 10 2 2 2 6 2 10z m-781-176c-86 0-160 70-160 156 0 84 74 155 160 155 86 0 154-69 154-155 0-86-68-156-154-156z m562 0c-86 0-160 70-160 156 0 84 74 155 160 155 74 0 135-51 151-121 2-6 2-12 2-18 0-4 2-6 2-8 0-2 0-6 0-8 0-86-69-156-155-156z" horiz-adv-x="1000" />
<glyph glyph-name="envelope-empty" unicode="&#xe824;" d="m1000 450c-2 11-6 21-12 31l0 0-2 0c-2 4-5 8-9 12l-409 392c-35 37-97 37-132 0l-409-390c-7-8-27-30-27-51l0-469c0-35 27-63 63-63l875 0c35 0 62 28 62 63l0 467c0 2 0 6 0 8z m-736-246l-201-186 0 363z m64-26c2 0 4 2 6 4 0 2 0 2 0 2l139 127c8 6 15 8 23 8 10 0 20-2 26-8l375-336-790 0z m412 22l198 175 0-353z m-638 281l379 361c5 6 13 10 21 10 8 0 16-4 21-10l354-336-2 0 55-54-237-211-132 119c-38 29-90 31-129-2l-121-111-237 207 26 27z" horiz-adv-x="1000" />
<glyph glyph-name="envelope-letter" unicode="&#xe825;" d="m1000 450c-2 11-6 21-12 31l0 0-2 0c-2 4-5 8-9 12l-164 164 0 101c0 16-14 32-32 32l-99 0-114 95c-35 37-97 37-132 0l-114-95-103 0c-18 0-31-16-31-32l0-103-161-160c-15-10-27-30-27-51l0-469c0-35 27-63 63-63l875 0c35 0 62 28 62 63l0 467c0 2 0 6 0 8z m-738-246l-199-186 0 363z m60-30c4 2 8 6 12 8 2 2 2 4 4 6l135 125c8 6 15 10 23 10 10 0 20-4 26-8l375-340-790 0z m418 26l198 175 0-353z m137 306l-2 0 55-54-117-104 0 223z m-396 336c5 6 13 10 21 10 8 0 16-4 21-10l65-52-172 0z m269-115l0-436-57-48-132 121c-38 27-90 29-129-2l-123-115-59 52 0 428z m-648-246l86 86 0-213-114 100 26 27z" horiz-adv-x="1000" />
<glyph glyph-name="bell-3" unicode="&#xe826;" d="m885 217c-37 45-86 108-86 172l0 203c0 176-133 319-301 319-168 0-299-143-299-319l0-203c0-64-52-123-88-170-31-41-54-74-39-105 16-30 51-33 82-33l178 0c0-92 74-167 168-167 92 0 166 75 166 167l184 0c17 0 62 0 78 31 15 33-10 64-43 105z m-385-238c-57 0-102 45-102 102l202 0c0-57-45-102-100-102z m350 168l-696 0c-6 0-9 0-13 0 7 10 15 23 23 33 39 51 102 123 102 209l0 203c0 139 101 252 232 252 131 0 234-113 234-252l0-203c0-88 59-162 100-215 8-8 18-17 24-27-2 0-4 0-6 0z" horiz-adv-x="1000" />
<glyph glyph-name="award-alt" unicode="&#xe827;" d="m998 92l-183 338c17 43 29 90 29 139 0 189-154 344-344 344-189 0-344-155-344-344 0-51 12-98 32-141l-184-336c-8-10-6-23 2-33 8-10 19-16 31-12l156 35 55-148c4-12 14-20 27-22 0 0 2 0 2 0 12 0 22 6 28 18l160 297c12-2 23-2 35-2 10 0 22 0 31 2l164-299c6-10 16-16 28-16 0 0 2 0 2 0 13 2 23 10 27 22l55 148 156-35c12-4 23 2 31 12 8 10 10 22 4 33z m-715-72l-39 109c-6 16-21 24-37 22l-115-28 131 241c45-59 105-102 177-123z m-64 549c0 154 127 281 281 281 154 0 281-127 281-281 0-154-127-281-281-281-154 0-281 127-281 281z m574-418c-16 2-31-6-37-22l-39-109-121 219c74 21 138 68 181 129l133-245z" horiz-adv-x="1000" />
<glyph glyph-name="anchor-3" unicode="&#xe828;" d="m998 198l-82 148c0 0 0 0 0 0l-6 10c-2 6-8 10-13 12-6 0-12 0-16-4l-10-6c0 0-2 0-2 0l-140-96c-12-8-16-21-8-33l6-6c5-12 19-12 31-6l84 59c-20-162-151-287-311-301l0 627 125 0c18 0 32 14 32 31 0 16-14 32-32 32l-127 0c0 0 0 0 0 1 55 12 98 63 98 124 0 68-57 125-127 125-68 0-125-57-125-125 0-61 41-110 96-124 0-1 0-1 0-1l-127 0c-18 0-31-16-31-32 0-17 13-31 31-31l125 0 0-627c-160 14-291 139-311 301l84-59c10-6 26-6 31 6l6 6c8 12 4 25-7 33l-141 96c0 0-2 0-2 0l-10 6c-4 4-10 4-15 4-6-2-12-6-14-12l-6-10c0 0 0 0 0 0l-82-148c-6-10-2-26 8-32l10-3c9-6 23 0 29 9l47 88c29-199 201-350 404-350 203 0 375 151 404 350l47-88c6-9 20-15 30-9l9 3c10 6 14 22 8 32z m-560 592c0 33 27 62 62 62 35 0 65-29 65-62 0-36-30-65-65-65-35 0-62 29-62 65z" horiz-adv-x="1000" />
<glyph glyph-name="wallet-1" unicode="&#xe829;" d="m1000 629c0 24-6 77-76 96l-699 141-6 0c-53 0-94-41-94-94l0-125-31 0c-53 0-94-43-94-94l0-500c0-53 41-94 94-94l812 0c53 0 94 41 94 94z m-812 143c0 16 11 29 27 31l689-138c0 0-4-18-29-18l-687 0z m750-719c0-17-14-31-32-31l-812 0c-18 0-31 14-31 31l0 500c0 18 13 31 31 31l781 0c31 0 63 10 63 32l0-563z m-750 313c-36 0-63-30-63-63 0-35 27-62 63-62 35 0 62 27 62 62 0 33-27 63-62 63z" horiz-adv-x="1000" />
<glyph glyph-name="vector-1" unicode="&#xe82a;" d="m969 256l-31 0 0 2c0 158-84 297-211 373l156 0c12-19 31-31 55-31 35 0 62 27 62 63 0 35-27 62-62 62-24 0-43-12-55-31l-289 0 0 31c0 18-14 31-31 31l-125 0c-18 0-32-13-32-31l0-31-289 0c-11 19-31 31-54 31-36 0-63-27-63-62 0-36 27-63 63-63 23 0 43 12 54 31l156 0c-126-76-210-215-210-373l0-2-32 0c-17 0-31-13-31-31l0-125c0-18 14-31 31-31l125 0c18 0 32 13 32 31l0 125c0 18-14 31-32 31l-31 0 0 2c0 174 119 321 281 364l0-22c0-18 14-31 32-31l125 0c17 0 31 13 31 31l0 22c162-43 281-190 281-364l0-2-31 0c-18 0-31-13-31-31l0-125c0-18 13-31 31-31l125 0c17 0 31 13 31 31l0 125c0 18-14 31-31 31z m-844-125l-62 0 0 63 62 0z m406 500l-62 0 0 63 62 0z m407-500l-63 0 0 63 63 0z" horiz-adv-x="1000" />
<glyph glyph-name="message" unicode="&#xe82b;" d="m938 850l-875 0c-36 0-63-27-63-62l0-565c0-33 27-62 63-62l125 0 0-155c0-13 7-23 19-29 4-2 8-2 12-2 8 0 15 2 21 8l180 178 518 0c35 0 62 29 62 62l0 565c0 35-27 62-62 62z m0-627l-543 0-145-142 0 142-187 0 0 565 875 0z m-719 250l562 0c18 0 32 16 32 31 0 18-14 32-32 32l-562 0c-18 0-31-14-31-32 0-15 13-31 31-31z m0 125l562 0c18 0 32 16 32 31 0 18-14 32-32 32l-562 0c-18 0-31-14-31-32 0-15 13-31 31-31z m0-250l375 0c17 0 31 16 31 31 0 18-14 32-31 32l-375 0c-18 0-31-14-31-32 0-15 13-31 31-31z" horiz-adv-x="1000" />
<glyph glyph-name="puzzle-2" unicode="&#xe82c;" d="m500-88c-19 0-39 8-53 22l-425 426c-30 29-30 76 0 105l156 157c10 9 23 11 37 5 12-5 17-19 16-33-2-10-2-15-2-23 0-69 54-125 123-125 68 0 119 56 119 125 0 68-51 125-119 125-6 0-14-2-22-2-14-4-27 4-33 15-8 12-4 28 6 38l144 144c30 29 78 29 106 0l105-105c24 68 88 119 164 119 96 0 172-78 172-172 0-76-49-143-119-164l104-104c29-29 29-76 0-105l-426-426c-14-14-33-22-53-22z m-330 614l-105-106c-4-4-4-11 1-15l426-426c6-6 10-6 16 0l426 426c6 4 6 11 0 15l-149 151c-10 10-13 25-8 37 6 12 20 17 34 17l4-2c1 0 5 0 7 0 61 0 110 49 110 110 0 60-49 109-110 109-60 0-109-49-109-109 0-2 0-6 2-8l0-6c2-13-6-25-18-31-11-6-25-4-35 6l-154 154c-6 6-10 6-16 0l-95-96c82-19 136-93 136-181 0-102-78-188-181-188-88 0-161 63-182 143z" horiz-adv-x="1000" />
<glyph glyph-name="print-3" unicode="&#xe82d;" d="m930 665l-117 0 0 248-625 0 0-248-118 0c-39 0-70-32-70-71l0-424c0-39 31-70 70-70l118 0 0-188 625 0 0 188 117 0c39 0 70 31 70 70l0 424c0 39-31 71-70 71z m-680 185l500 0 0-185-500 0z m500-875l-500 0 0 344 500 0z m188 195c0-4-4-7-8-7l-117 0 0 218-625 0 0-218-118 0c-4 0-7 3-7 7l0 424c0 4 3 8 7 8l860 0c4 0 8-4 8-8z m-125 368l-32 0c-17 0-31-14-31-32 0-17 14-31 31-31l32 0c17 0 31 14 31 31 0 18-14 32-31 32z" horiz-adv-x="1000" />
<glyph glyph-name="gift-3" unicode="&#xe82e;" d="m1000 600c0 33-27 63-62 63l-108 0c29 27 47 62 47 105 0 55-31 113-119 113-115 0-211-121-256-189-45 68-145 189-260 189-86 0-117-58-117-113 0-43 18-78 47-105l-109 0c-36 0-63-30-63-63l0-187 63 0 0-407c0-35 29-62 62-62l750 0c35 0 63 27 63 62l0 407 62 0z m-242 219c39 0 57-16 57-51 0-68-79-105-151-105l-107 0c45 66 123 156 201 156z m-516 0c78 0 160-90 205-156l-107 0c-72 0-152 37-152 107 0 33 17 49 54 49z m696-344l-407 0 0 125 407 0z m-875 125l406 0 0-125-406 0z m62-187l344 0 0-407-344 0z m750-407l-344 0 0 407 344 0z" horiz-adv-x="1000" />
<glyph glyph-name="note-list" unicode="&#xe82f;" d="m33 850l438 0c17 0 31 14 31 31 0 18-14 32-31 32l-438 0c-17 0-31-14-31-32 0-17 14-31 31-31z m0-187l438 0c17 0 31 13 31 31 0 17-14 31-31 31l-438 0c-17 0-31-14-31-31 0-18 14-31 31-31z m469-157c0 18-14 32-31 32l-438 0c-17 0-31-14-31-32 0-17 14-31 31-31l438 0c17 0 31 14 31 31z m486 90l-304 305c-10 10-24 12-36 6-13-4-21-16-21-30l0-691c-33 23-76 39-125 39-104 0-187-70-187-156 0-86 83-157 187-157 104 0 188 71 188 157 0 4 0 8 0 12l0 726 255-256c12-11 32-11 43 0 14 12 14 31 0 45z m-361-531c-2-43-53-90-125-90-74 0-125 49-125 94 0 45 51 94 125 94 72 0 123-47 125-90z" horiz-adv-x="1000" />
<glyph glyph-name="attach-3" unicode="&#xe830;" d="m990 541l-359 362c-8 8-18 12-29 8-10-2-20-10-22-20-21-70-25-133-8-191-2 0-4-2-4-4l-168-166c-54 25-111 39-169 39-38 0-73-6-108-18-10-2-17-11-19-21-4-10 0-22 7-30l213-214-299-305-25-69 63 26 306 303 217-219c6-6 14-8 21-8 2 0 6 0 8 0 10 4 20 12 22 22 29 91 21 189-20 277l172 170c0 0 0 2 0 2 27-8 53-12 80-12 35 0 72 6 110 18 9 2 17 11 21 21 2 10-2 22-10 29z m-400-433l-395 396c102 12 211-29 289-109 79-78 118-186 106-287z m-4 262c-16 25-35 48-57 70-23 21-47 41-72 58l141 141c15-25 33-49 56-72 24-24 47-41 73-57z m111 242c-58 60-82 127-70 207l279-281c-80-12-146 11-209 74z" horiz-adv-x="1000" />
<glyph glyph-name="image" unicode="&#xe831;" d="m938 834l-875 0c-36 0-63-27-63-62l0-719c0-35 27-62 63-62l875 0c35 0 62 27 62 62l0 719c0 35-27 62-62 62z m0-781l-875 0 0 184 250 244 259-260c10-12 30-10 43 0l114 104 207-211c0-2 2-2 2-2z m0 147l-184 187c-12 12-29 14-41 4l-117-103-260 255c-6 8-14 12-21 12-8 0-18-2-24-8l-228-222 0 447 875 0z m-219 322c35 0 62 27 62 62 0 34-27 63-62 63-35 0-63-29-63-63 0-35 28-62 63-62z" horiz-adv-x="1000" />
<glyph glyph-name="map-2" unicode="&#xe832;" d="m971 780l-315 131-312-123-315 123c-2 0-4 2-7 2-12 0-22-10-22-26l0-810c0-16 14-36 29-39l317-126 310 128 315-124c2 0 4 0 8 0 11 0 21 8 21 24l0 801c0 17-14 35-29 39z m-596-45l250 99 0-744-250-99z m-312 94l250-94 0-744-250 103z m875-833l-250 94 0 742 250-107z" horiz-adv-x="1000" />
<glyph glyph-name="layers" unicode="&#xe833;" d="m22 618l462-252c6-4 10-4 16-4 6 0 10 0 16 4l468 252c10 5 16 15 16 27 0 12-6 23-18 27l-462 237c-10 4-20 4-30 0l-468-237c-10-4-16-15-16-27-2-12 6-22 16-27z m484 228l396-201-402-217-396 217z m473-402l-94 47-67-37 79-39-403-217-396 217 84 41-67 37-97-49c-12-6-18-16-18-28 0-11 6-23 16-27l465-254c3-2 9-4 13-4 6 0 12 2 16 4l469 254c9 4 15 16 15 27 0 12-6 22-15 28z m0-219l-88 43-69-37 75-35-403-217-396 217 78 35-67 37-91-43c-12-6-18-16-18-27 0-12 6-24 16-28l465-254c3-2 9-4 13-4 6 0 12 2 16 4l469 252c9 6 15 18 15 30 0 11-6 21-15 27z" horiz-adv-x="1000" />
<glyph glyph-name="bag-1" unicode="&#xe834;" d="m998-7l-80 492c-8 62-66 115-131 115l-68 0 0 82c0 129-90 231-219 231-127 0-219-102-219-231l0-82-74 0c-64 0-123-53-131-115l-74-492c-4-26 2-47 14-61 13-14 31-20 52-20l854 0c33 0 51 12 60 24 10 10 20 27 16 57z m-654 689c0 94 64 168 156 168 94 0 156-74 156-168l0-82-312 0z m582-707l-854 0c-4 0-9 2-9 10l76 492c4 33 35 61 68 61l74 0 0-73c-19-9-31-29-31-52 0-36 27-63 63-63 35 0 62 27 62 63 0 23-12 43-31 52l0 73 312 0 0-73c-19-9-31-29-31-52 0-36 27-63 63-63 35 0 62 27 62 63 0 23-12 43-31 52l0 73 68 0c33 0 65-28 69-63l82-492c0-4-4-8-12-8z" horiz-adv-x="1000" />
<glyph glyph-name="globe-3" unicode="&#xe835;" d="m908 508c0 164-88 315-232 401-16 7-35 4-43-12-10-16-4-35 12-43 125-74 201-203 201-346 0-236-172-408-408-408-55 0-106 10-155 29-15 6-33-2-39-17-8-16 0-35 16-41 56-22 115-33 178-33 0 0 0 0 0 0l0-63-92 0c-18 0-31-14-31-31 0-18 13-32 31-32l248 0c17 0 33 14 33 32 0 17-16 31-33 31l-94 0 0 66c240 28 408 215 408 467z m-127-4c0 192-154 346-345 346-190 0-344-154-344-346 0-189 154-341 344-341 191 0 345 152 345 341z m-627 0c0 157 127 284 282 284 156 0 283-127 283-284 0-154-127-279-283-279-155 0-282 125-282 279z" horiz-adv-x="1000" />
<glyph glyph-name="globe-alt-2" unicode="&#xe836;" d="m1002 413c0 265-209 484-473 500-4 0-9 0-15 0-2 0-4 0-6 0-2 0-4 0-8 0-275 0-502-225-502-500 0-276 227-501 502-501 4 0 6 0 10 0 0 0 2 0 4 0 6 0 11 0 15 0 264 16 473 235 473 501z m-94-161c-17 4-60 16-136 24 5 43 9 90 9 137 0 37-2 74-6 109 96 10 139 25 141 25l-12 34c22-51 36-108 36-168 0-57-12-112-32-161z m-629 161c0 35 2 68 6 101 51-4 112-6 184-8l0-216c-71 0-129-4-180-6-6 41-10 84-10 129z m250 433c78-21 143-129 172-269-47-4-103-8-172-8z m-60-2l0-275c-69 2-125 4-174 8 31 138 98 244 174 267z m0-617l0-246c-72 21-135 115-166 240 47 4 101 6 166 6z m60-248l0 248c65 0 121-2 166-6-31-127-93-221-166-242z m0 311l0 216c73 2 133 4 184 8 4-33 6-66 6-101 0-45-4-88-10-131-51 4-109 8-180 8z m364 316c-8-2-49-14-127-24-18 94-49 174-92 233 96-43 174-117 219-209z m-543 219c-51-59-92-143-116-243-70 8-113 16-128 20 48 104 136 184 244 223z m-268-282c12-2 57-13 143-23-6-35-8-70-8-107 0-47 4-92 12-135-73-8-118-18-137-24-20 49-31 104-31 159 0 44 7 89 21 130z m37-345c22 4 63 11 123 17 24-88 63-162 108-215-98 38-180 108-231 198z m555-188c37 53 68 123 86 205 62-8 101-15 121-21-47-80-119-145-207-184z" horiz-adv-x="1000" />
<glyph glyph-name="fullscreen" unicode="&#xe837;" d="m219 803l-188 0c-17 0-31-13-31-31l0-188c0-17 14-31 31-31 18 0 32 14 32 31l0 157 156 0c17 0 31 13 31 31 0 18-14 31-31 31z m750-531c-18 0-31-14-31-31l0-157-157 0c-17 0-31-13-31-31 0-17 14-31 31-31l188 0c17 0 31 14 31 31l0 188c0 17-14 31-31 31z m-750-188l-156 0 0 157c0 17-14 31-32 31-17 0-31-14-31-31l0-188c0-17 14-31 31-31l188 0c17 0 31 14 31 31 0 18-14 31-31 31z m750 719l-188 0c-17 0-31-13-31-31 0-18 14-31 31-31l157 0 0-157c0-17 13-31 31-31 17 0 31 14 31 31l0 188c0 18-14 31-31 31z" horiz-adv-x="1000" />
<glyph glyph-name="folder-alt" unicode="&#xe838;" d="m938 709l-469 0-94 94-312 0c-36 0-63-27-63-62l0-157 0 0 0-62 0 0 0-438c0-35 27-62 63-62l875 0c35 0 62 27 62 62l0 563c0 35-27 62-62 62z m-875 32l283 0 78-76 19-18 495 0 0-63-875 0 0 157z m0-657l0 438 875 0 0-438z" horiz-adv-x="1000" />
<glyph glyph-name="video-3" unicode="&#xe839;" d="m781 647l63 0c17 0 31 14 31 31l0 31c0 18-14 32-31 32l-63 0c-17 0-31-14-31-32l0-31c0-17 14-31 31-31z m0-188l63 0c17 0 31 14 31 32l0 31c0 18-14 31-31 31l-63 0c-17 0-31-13-31-31l0-31c0-18 14-32 31-32z m0-187l63 0c17 0 31 14 31 31l0 31c0 18-14 32-31 32l-63 0c-17 0-31-14-31-32l0-31c0-17 14-31 31-31z m0-188l63 0c17 0 31 14 31 32l0 31c0 18-14 31-31 31l-63 0c-17 0-31-13-31-31l0-31c0-18 14-32 31-32z m-625 563l63 0c17 0 31 14 31 31l0 31c0 18-14 32-31 32l-63 0c-17 0-31-14-31-32l0-31c0-17 14-31 31-31z m0-188l63 0c17 0 31 14 31 32l0 31c0 18-14 31-31 31l-63 0c-17 0-31-13-31-31l0-31c0-18 14-32 31-32z m0-187l63 0c17 0 31 14 31 31l0 31c0 18-14 32-31 32l-63 0c-17 0-31-14-31-32l0-31c0-17 14-31 31-31z m0-188l63 0c17 0 31 14 31 32l0 31c0 18-14 31-31 31l-63 0c-17 0-31-13-31-31l0-31c0-18 14-32 31-32z m782 813l-875 0c-36 0-63-27-63-63l0-843c0-36 27-63 63-63l875 0c35 0 62 27 62 63l0 843c0 36-27 63-62 63z m0-906l-875 0 0 843 875 0z" horiz-adv-x="1000" />
<glyph glyph-name="rss-3" unicode="&#xe83a;" d="m100 590c-18 0-32-13-32-33 0-17 14-31 32-31 295 0 513-219 513-516 0-17 14-31 32-31 17 0 31 14 31 31 0 334-244 580-576 580z m0 321c-18 0-32-16-32-34 0-17 14-31 32-31 459 0 832-373 832-832 0-18 15-33 33-33 17 0 31 15 31 33 0 494-402 897-896 897z m80-643c-98 0-176-78-176-176 0-98 78-178 176-178 97 0 176 80 176 178 0 98-79 176-176 176z m0-291c-63 0-115 51-115 115 0 63 52 115 115 115 62 0 115-52 115-115 0-64-53-115-115-115z" horiz-adv-x="1000" />
<glyph glyph-name="headphones-alt" unicode="&#xe83b;" d="m1000 354c0 19-4 98-6 119-29 256-234 440-492 440-266 0-482-206-496-479-2-6-4-47-4-72l0-14c-2-6-2-12-2-17l0-211c0-45 37-82 84-82l84 0c45 0 82 37 82 82l0 211c0 44-37 82-82 82l-84 0c-6 0-12 0-18-2 0 9 0 17 0 21 14 238 204 418 436 418 225 0 406-160 430-383 2-10 2-33 4-56-6 2-12 2-20 2l-82 0c-47 0-84-38-84-82l0-209c0-34 18-59 45-75l-201-78 0 6c0 16-14 31-31 31l-94 0c-18 0-31-15-31-31l0-31c0-18 13-32 31-32l94 0c0 0 0 0 0 0l56 0 322 126c4 2 8 5 10 7 30 14 49 43 49 77l0 209c0 3 0 9-2 13 2 4 2 6 2 10z m-916-4l84 0c12 0 20-10 20-19l0-211c0-12-8-20-20-20l-84 0c-12 0-21 8-21 20l0 211c0 9 9 19 21 19z m729-19c0 9 9 19 21 19l82 0c12 0 22-10 22-19l0-209c0-12-10-22-22-22l-82 0c-12 0-21 10-21 22z" horiz-adv-x="1000" />
<glyph glyph-name="headphones-2" unicode="&#xe83c;" d="m1000 323c0 19-4 97-6 119-29 256-234 439-492 439-266 0-482-205-496-478-2-6-4-47-4-72l0-14c-2-6-2-12-2-18l0-273c0-45 37-82 84-82l84 0c45 0 82 37 82 82l0 271c0 47-37 84-82 84l-84 0c-6 0-12 0-18-2 0 10 0 18 0 22 14 238 204 418 436 418 225 0 406-160 430-383 2-10 2-33 4-57-6 2-12 2-20 2l-82 0c-47 0-84-37-84-84l0-269c0-47 37-84 84-84l82 0c47 0 84 37 84 84l0 269c0 6 0 12-2 16 2 4 2 6 2 10z m-916-4l84 0c12 0 20-10 20-22l0-271c0-12-8-20-20-20l-84 0c-12 0-21 8-21 20l0 271c0 12 9 22 21 22z m854-291c0-12-10-22-22-22l-82 0c-12 0-21 10-21 22l0 269c0 12 9 22 21 22l82 0c12 0 22-10 22-22z" horiz-adv-x="1000" />
<glyph glyph-name="droplet-1" unicode="&#xe83d;" d="m498-86c-187 0-342 151-342 338 0 217 305 629 317 647 6 8 15 12 25 12 12 0 20-4 25-12 14-18 321-422 321-647 0-187-154-338-346-338z m0 913c-72-104-279-412-279-575 0-152 125-275 279-275 156 0 283 123 283 275 0 168-209 473-283 575z" horiz-adv-x="1000" />
<glyph glyph-name="inbox-5" unicode="&#xe83e;" d="m998 415l-113 398c-4 12-16 21-31 21l-717 0c-16 0-28-9-31-23l-106-377c-2-8 0-14 2-21 0-4-2-10-2-18l0-342c0-35 27-62 63-62l875 0c35 0 62 27 62 62l0 342c0 2 0 4 0 6 0 4 0 10-2 14z m-838 357l670 0 92-315-291 0c-2-74-55-125-131-125-76 0-127 51-129 125l-299 0z m778-719l-875 0 0 342 257 0c28-78 92-125 180-125 88 0 154 47 182 125l256 0z" horiz-adv-x="1000" />
<glyph glyph-name="copy" unicode="&#xe83f;" d="m750 913l-344 0c-35 0-62-28-62-63l344 0 0-250 250 0 0-500-219 0 0-62 219 0c35 0 62 27 62 62l0 563z m0-250l0 162 162-162z m-687 125c-36 0-63-28-63-63l0-750c0-35 27-63 63-63l531 0c35 0 62 28 62 63l0 563-250 250z m531-813l-531 0 0 750 281 0 0-250 250 0z m-188 563l0 162 162-162z" horiz-adv-x="1000" />
<glyph glyph-name="sign-alt" unicode="&#xe840;" d="m994 731l-97 109c-6 6-16 10-24 10l-342 0 0 33c0 16-15 30-31 30-18 0-31-14-31-30l0-33-250 0c-18 0-31-14-31-31l0-219c0-18 13-31 31-31l250 0 0-63-342 0c-8 0-18-4-23-9l-98-112c-10-12-10-29 0-41l98-109c5-8 15-10 23-10l342 0 0-283c0-16 13-30 31-30 16 0 31 14 31 30l0 283 250 0c18 0 32 14 32 31l0 219c0 18-14 31-32 31l-250 0 0 63 342 0c8 0 18 4 24 12l97 109c10 12 10 29 0 41z m-244-443l-609 0-69 76 69 80 609 0z m109 343l-609 0 0 157 609 0 69-79z" horiz-adv-x="1000" />
<glyph glyph-name="sign" unicode="&#xe841;" d="m943 622l-173 187c-6 6-14 10-24 10l-260 0-2 64c0 16-13 30-31 30-17 0-29-14-29-30l0-64-346 0c-17 0-31-14-31-31l0-375c0-18 14-32 31-32l344 0 0-439c0-16 16-30 31-30 18 0 31 14 31 30l0 439 262 0c10 0 18 4 24 10l173 188c12 11 12 31 0 43z m-211-178l-623 0 0 312 623 0 147-156z" horiz-adv-x="1000" />
<glyph glyph-name="diamond-1" unicode="&#xe842;" d="m994 623l-137 262c-7 16-27 28-44 28l-315 0c0 0 0 0 0 0-2 0-2 0-2 0l-308 0c-18 0-38-12-47-28l-135-256c-8-15-8-39 4-52l469-655c3-6 11-10 17-10 6 0 14 4 18 10l476 649c12 13 12 37 4 52z m-74 8l-168 0 68 192z m-357 219l201 0-63-178z m89-219l-291 0 139 198z m-345 30l-63 189 194 0z m357-92l-168-481-158 481z m-238-469l-336 469 182 0z m305 469l181 0-346-469z m-547 263l66-201-172 0z" horiz-adv-x="1000" />
<glyph glyph-name="cup-2" unicode="&#xe843;" d="m813 506c-8 0-34 0-63 0l0 63c0 35-27 62-62 62l-625 0c-36 0-63-27-63-62l0-469c0-104 84-188 188-188l375 0c103 0 187 84 187 188l0 31c27 0 57 0 63 0 103 0 187 84 187 188 0 103-84 187-187 187z m-125-406c0-68-55-125-125-125l-375 0c-69 0-125 57-125 125l0 469 0 0 625 0z m125 94c-6 0-36 0-63 0l0 250c29 0 55 0 63 0 72 0 127-53 127-125 0-72-55-125-127-125z m-250 500c17 0 31 13 31 31l0 156c0 18-14 32-31 32-18 0-32-14-32-32l0-156c0-18 14-31 32-31z m-375 0c17 0 31 13 31 31l0 156c0 18-14 32-31 32-18 0-32-14-32-32l0-156c0-18 14-31 32-31z m187 0c18 0 31 13 31 31l0 156c0 18-13 32-31 32-18 0-31-14-31-32l0-156c0-18 13-31 31-31z" horiz-adv-x="1000" />
<glyph glyph-name="compass-3" unicode="&#xe844;" d="m717 639l-307-131c-6-4-10-8-13-13l-139-284c-6-9-4-23 4-33 6-6 13-10 21-10 4 0 10 2 14 4l299 123c4 4 10 8 11 14l149 289c6 12 4 25-6 35-8 10-23 12-33 6z m-367-375l84 172 86-107z m220 102l-86 109 172 68z m-70 547c-275 0-500-225-500-500 0-276 225-501 500-501 275 0 500 225 500 501 0 275-225 500-500 500z m0-940c-242 0-437 197-437 440 0 242 195 437 437 437 242 0 438-195 438-437 0-243-196-440-438-440z" horiz-adv-x="1000" />
<glyph glyph-name="call-out" unicode="&#xe845;" d="m977 159c-16 11-182 123-204 134-7 6-19 8-31 8-15 0-33-4-49-11-15-10-64-38-89-51-20 15-71 52-147 131-78 76-117 127-131 148 14 23 41 72 49 88 16 31 18 60 6 82-12 18-123 185-135 203-12 14-29 22-51 22-17 0-35-4-48-16-2 0-151-107-149-168 6-170 172-371 311-508 136-139 338-305 507-309l2 0c61 0 166 145 166 147 28 39 18 82-7 100z m-43-65c-39-54-96-111-118-119-117 6-283 107-464 289-182 184-286 348-289 465 7 21 64 78 119 117 4 4 8 4 13 4 0 0 2 0 2 0 18-25 112-168 129-195 0-2 0-10-6-20-5-12-23-43-48-86l-20-35 23-33c16-24 57-76 137-156 80-80 133-121 156-137l34-23 33 19c33 20 74 43 88 49 9 6 17 6 19 6 0 0 0 0 0 0 26-14 170-112 196-129 2-2 0-8-4-16z m-266 446l270 267-2-152c0-12 9-24 23-24l16 0c11 0 23 8 23 22l0 224c0 0 0 0 0 0l0 12c0 8 0 12-6 18-4 4-8 6-15 6l-12 0c0 0 0 0 0 0l-225 0c-11 0-21-10-23-24l0-16c2-15 14-23 27-23l147 0-268-268c-12-11-12-31 0-42 14-12 33-12 45 0z" horiz-adv-x="1000" />
<glyph glyph-name="call-in" unicode="&#xe846;" d="m977 159c-16 11-182 123-204 134-7 6-19 8-31 8-15 0-33-4-49-11-15-10-64-38-89-51-20 15-71 52-147 131-78 76-117 127-131 148 14 23 41 72 49 88 16 31 18 60 6 82-12 18-123 185-135 203-12 14-29 22-51 22-17 0-35-4-48-16-2 0-151-107-149-168 6-170 172-371 311-508 136-139 338-305 507-309l2 0c61 0 166 145 166 147 28 39 18 82-7 100z m-43-65c-39-54-96-111-118-119-117 6-283 107-464 289-182 184-286 348-289 465 7 21 64 78 119 117 4 4 8 4 13 4 0 0 2 0 2 0 18-25 112-168 129-195 0-2 0-10-6-20-5-12-23-43-48-86l-20-35 23-33c16-24 57-76 137-156 80-80 133-121 156-137l34-23 33 19c33 20 74 43 88 49 9 6 17 6 19 6 0 0 0 0 0 0 26-14 170-112 196-129 2-2 0-8-4-16z m-305 451c4-4 10-7 16-7l11 2c0 0 0 0 0 0l225-2c12 0 23 11 23 23l0 16c-2 15-13 23-25 23l-148 0 255 256c12 14 12 33 0 45-11 12-33 12-45 0l-255-256 0 150c0 14-10 24-22 24l-16 0c-13 0-23-8-23-20l-2-226c0 0 2 0 2 0l-2-12c0-6 2-12 6-16z" horiz-adv-x="1000" />
<glyph glyph-name="phone-alt" unicode="&#xe847;" d="m940 717c0 0 0-2 0-2-26-17-168-111-196-129-4 0-10 0-19 6-12 6-43 24-88 49l-35 20-32-24c-25-15-76-56-156-137-80-80-121-132-139-156l-21-33 19-33c18-33 42-74 49-88 6-10 6-18 6-20 0 0 0 0 0 0-15-25-113-170-131-195-2-2-7-2-13 4-55 39-114 96-121 117 5 117 109 283 291 465 181 182 345 285 462 289 22-8 79-64 120-119 2-4 4-8 4-14m60 0c0 18-6 35-16 49-2 2-105 150-166 149-171-6-371-172-509-311-137-137-303-338-309-508l0-2c0-60 145-166 147-166 39-27 84-18 101 8 10 16 121 182 135 203 4 8 8 20 8 31 0 16-6 34-14 49-8 16-37 65-51 90 16 20 53 70 131 147 78 78 127 117 149 130 23-13 72-41 89-48 30-16 61-18 80-6 20 11 186 123 202 134 15 12 23 30 23 51z" horiz-adv-x="1000" />
<glyph glyph-name="calc-1" unicode="&#xe848;" d="m938 913l-875 0c-36 0-63-28-63-63l0-875c0-35 27-63 63-63l875 0c35 0 62 28 62 63l0 875c0 35-27 63-62 63z m0-938l-875 0 0 875 875 0z m-719 594l62 0 0-63c0-17 14-31 32-31 17 0 31 14 31 31l0 63 62 0c18 0 32 13 32 31 0 18-14 31-32 31l-62 0 0 63c0 17-14 31-31 31-18 0-32-14-32-31l0-63-62 0c-18 0-31-13-31-31 0-18 13-31 31-31z m205-235c-14 14-33 14-45 0l-66-66-67 66c-12 14-31 14-45 0-11-11-11-31 0-43l67-66-67-66c-11-12-11-32 0-45 14-12 33-12 45 0l67 66 66-66c12-12 31-12 45 0 12 13 12 33 0 45l-67 66 67 66c12 12 12 32 0 43z m170 235l187 0c18 0 32 13 32 31 0 18-14 31-32 31l-187 0c-18 0-31-13-31-31 0-18 13-31 31-31z m0-313l187 0c18 0 32 14 32 32 0 17-14 31-32 31l-187 0c-18 0-31-14-31-31 0-18 13-32 31-32z m0-125l187 0c18 0 32 14 32 32 0 17-14 31-32 31l-187 0c-18 0-31-14-31-31 0-18 13-32 31-32z" horiz-adv-x="1000" />
<glyph glyph-name="chat-3" unicode="&#xe849;" d="m414 248c227 0 401 129 399 321 0 170-180 304-405 304-226 0-408-134-408-304 0-106 51-217 160-274 0 0-2 0-2 0 0-47-37-109-52-134l0 0c0-4-2-6-2-10 0-14 11-24 23-24 2 0 6 0 6 0 0 0 0 0 0 0 80 14 199 104 217 125 17-4 29-4 45-4 5 0 11 0 19 0z m-92 69l-39-33c-10-12-51-45-84-67 22 61 20 78 20 78l4 39-35 18c-86 45-125 137-125 217 0 135 154 242 345 242 192 0 342-107 342-242 0-149-143-258-334-258 0 0-27-2-59 4z m678 0c0 84-33 148-115 197-2-21-8-47-16-68 53-37 69-74 69-129 0-69-32-117-104-154l-31-16c0 0 2-80 8-100-61 45-82 82-82 82l-34-6c-13-1-48-1-48-1-84 0-147 21-202 62 16 2-86 2-88 0 61-76 163-125 290-125 7 0 13 0 19 0 12 0 24 2 39 4 14-20 100-100 168-111 0 0 0 0 0 0 2 0 4 0 6 0 12 0 19 9 19 19 0 4 0 6-1 8l0 0c-12 23-34 88-34 127 0 2 0 2 0 2 94 49 137 117 137 209z" horiz-adv-x="1000" />
<glyph glyph-name="briefcase-4" unicode="&#xe84a;" d="m938 725l-250 0 0 61c0 52-41 93-94 93l-188 0c-50 0-93-41-93-93l0-61-250 0c-36 0-63-27-63-62l0-219 0 0 0-63 0 0 0-373c0-35 27-62 63-62l875 0c35 0 62 27 62 62l0 655c0 35-27 62-62 62z m-563 61c0 17 14 31 31 31l188 0c17 0 31-14 31-31l0-61-250 0z m-312-123l875 0 0-219-344 0 0 33c0 33-29 63-63 63l-62 0c-35 0-63-30-63-63l0-33-343 0z m468-344l-62 0 0 158 62 0z m-468-311l0 373 343 0 0-62c0-35 28-63 63-63l62 0c34 0 63 28 63 63l0 62 344 0 0-373z" horiz-adv-x="1000" />
<glyph glyph-name="book-2" unicode="&#xe84b;" d="m930 911l-412-112c-12-4-36-2-45 0l-403 112c-35 9-70-16-70-53l0-760c0-31 23-60 53-70l404-112c10-2 24-4 39-4 10 0 24 0 37 4l412 112c32 8 55 39 55 70l0 760c0 37-35 62-70 53z m-461-932l-399 109c-4 0-7 6-7 10l0 750 394-109c4 0 8-2 12-2z m469 119c0-4-4-8-8-10l-399-107 0 758c0 0 2 0 2 0l405 109 0-750z m-311 457c2 0 6 0 8 0l219 63c17 4 27 21 21 39-4 15-21 25-37 21l-219-62c-17-4-27-22-21-37 4-16 15-24 29-24z m0-187c2 0 6 0 8 0l219 62c17 4 27 22 21 39-4 16-21 26-37 22l-219-63c-17-4-27-21-21-37 4-16 15-23 29-23z m0-188c2 0 6 0 8 0l219 63c17 4 27 21 21 39-4 15-21 25-37 21l-219-62c-17-4-27-22-21-37 4-16 15-24 29-24z m-242 436l-219 62c-16 4-33-6-37-21-6-18 4-35 21-39l219-63c2 0 6 0 8 0 14 0 25 8 29 24 6 15-4 33-21 37z m0-188l-219 63c-16 4-33-6-37-22-6-17 4-35 21-39l219-62c2 0 6 0 8 0 14 0 25 7 29 23 6 16-4 33-21 37z m0-187l-219 62c-16 4-33-6-37-21-6-18 4-35 21-39l219-63c2 0 6 0 8 0 14 0 25 8 29 24 6 15-4 33-21 37z" horiz-adv-x="1000" />
<glyph glyph-name="basket-alt" unicode="&#xe84c;" d="m992 635c-6 8-15 14-25 14l-98 0-201 170c-23 25-62 25-88 0l-197-170-80 0-49 172c-22 68-66 76-86 76l-135 0c-17 0-31-14-31-31 0-18 14-32 31-32l135 0c4 0 16 0 25-29l172-635c4-13 18-23 32-23l421 0c12 0 24 8 30 21l148 438c4 10 2 21-4 29z m-367 141l148-127-296 0z m172-567l-377 0-100 377 602 0z m-63-125c-43 0-78-35-78-78 0-43 35-78 78-78 43 0 79 35 79 78 0 43-36 78-79 78z m-281 0c-43 0-78-35-78-78 0-43 35-78 78-78 43 0 78 35 78 78 0 43-35 78-78 78z" horiz-adv-x="1000" />
<glyph glyph-name="basket-3" unicode="&#xe84d;" d="m992 635c-6 8-15 14-25 14l-664 0-49 172c-22 68-66 76-86 76l-135 0c-17 0-31-14-31-31 0-18 14-32 31-32l135 0c4 0 16 0 25-29l172-635c4-13 18-23 32-23l421 0c12 0 24 8 30 21l148 438c4 10 2 21-4 29z m-195-426l-377 0-100 377 602 0z m-63-125c-43 0-78-35-78-78 0-43 35-78 78-78 43 0 79 35 79 78 0 43-36 78-79 78z m-281 0c-43 0-78-35-78-78 0-43 35-78 78-78 43 0 78 35 78 78 0 43-35 78-78 78z" horiz-adv-x="1000" />
<glyph glyph-name="bag-alt" unicode="&#xe84e;" d="m844 758l-188 0 0 59c0 53-41 94-93 94l-123 0c-53 0-94-41-94-94l0-59-190 0c-35 0-62-29-62-62l0-719c0-35 27-63 62-63l688 0c35 0 62 28 62 63l0 719c0 33-27 62-62 62z m-436 59c0 17 14 31 32 31l123 0c17 0 31-14 31-31l0-59-186 0z m436-840l-688 0 0 719 190 0 0-65c0 0-2-31 29-31 35 0 33 31 33 31l0 65 186 0 0-65c0 0-2-31 31-31 31 0 31 31 31 31l0 65 188 0z" horiz-adv-x="1000" />
<glyph glyph-name="back-1" unicode="&#xe84f;" d="m967-7c0 0 0 0-2 0-16 0-25 11-25 27-2 12-34 293-473 293l0-180c0-11-6-23-18-27-9-6-23-4-33 4l-404 336c-8 6-12 13-12 23 0 10 4 18 12 24l404 334c10 5 24 7 33 4 12-6 18-18 18-30l0-176c181-5 324-62 416-169 148-174 115-426 113-438-2-14-14-25-29-25z m-531 382c0 0 2 0 2 0 312 0 431-105 500-199-10 74-40 166-104 239-84 97-219 150-398 150-16 0-32 14-32 31l0 141-324-268 324-269 0 144c0 8 4 16 10 22 6 6 14 9 22 9z" horiz-adv-x="1000" />
<glyph glyph-name="forward-4" unicode="&#xe850;" d="m33-7c0 0 0 0 2 0 16 0 26 11 26 27 2 12 33 293 470 293l2-180c0-11 6-23 18-27 10-6 23-4 33 4l404 336c8 6 12 13 12 23 0 10-4 18-12 24l-404 334c-10 5-23 7-33 4-12-6-18-18-18-30l-2-176c-181-5-322-62-414-169-148-174-115-426-113-438 2-14 14-25 29-25z m532 382c0 0-2 0-2 0-313 0-432-105-500-199 9 74 39 166 103 239 84 97 219 150 399 150 15 0 31 14 31 31l0 141 324-268-324-269 0 144c0 8-4 16-10 22-6 6-14 9-21 9z" horiz-adv-x="1000" />
<glyph glyph-name="settings" unicode="&#xe851;" d="m982 702c-9 5-23 4-31-4l-158-143-143 147 143 162c6 9 8 21 4 31-4 12-16 18-27 18l-8 0c-88 0-239-8-305-75l-14-13c-72-75-84-194-46-285l-360-368c-49-49-49-129 0-178l43-44c26-26 57-38 88-38 33 0 64 12 88 38l367 369c33-20 82-31 121-31 65 0 125 25 170 72l14 13c72 75 72 231 72 301 0 12-6 24-18 28z m-97-287l-12-12c-35-37-80-53-129-53-23 0-54 4-78 14-19 8-37 19-53 33l-400-403c-12-13-27-19-45-19-16 0-31 6-43 19l-45 44c-23 25-23 64 0 89l393 401c-14 17-24 39-28 60l0 0c-15 61-7 145 41 194l12 13c41 41 147 53 205 57l-115-133c-10-12-10-29 2-41l182-185c9-12 27-12 39 0l129 113c-4-61-16-150-55-191z" horiz-adv-x="1000" />
<glyph glyph-name="umbrella-1" unicode="&#xe852;" d="m1000 415c0-18-14-32-31-32l-438 0 0-316c0-84-70-155-154-155-86 0-154 71-154 155 0 17 13 31 31 31 16 0 31-14 31-31 0-51 41-92 92-92 51 0 92 41 92 92l0 316-438 0c-17 0-31 14-31 32 0 242 176 394 469 404l0 62c0 18 13 32 31 32 18 0 31-14 31-32l0-62c291-10 469-162 469-404z m-62 31c-16 195-176 312-438 312-264 0-422-117-437-312l875 0z" horiz-adv-x="1000" />
<glyph glyph-name="trash-4" unicode="&#xe853;" d="m875 756l-219 0 0 86c0 39-33 71-72 71l-168 0c-39 0-72-32-72-71l0-86-219 0c-18 0-31-13-31-31 0-16 13-31 31-31l43 0 72-721c2-35 32-61 65-61l390 0c34 0 63 26 65 59l72 723 43 0c18 0 31 15 31 31 0 18-13 31-31 31z m-469 86c0 6 4 10 10 10l168 0c6 0 10-4 10-10l0-86-188 0z m291-865c0 0-2-2-2-2l-390 0c0 0-2 2-2 4l-72 715 539 0z" horiz-adv-x="1000" />
<glyph glyph-name="tag-3" unicode="&#xe854;" d="m1000 506l0 330c0 43-33 77-76 77l-324 0-14 0c-20 0-53 0-74-22l-494-494c-12-12-18-27-18-43 0-18 6-33 18-45l379-379c11-12 27-18 44-18 16 0 32 6 43 18l495 494c21 22 21 53 21 82z m-64-37l-496-494-377 379 494 492c4 4 21 4 29 4l14 0 324 0c8 0 14-6 14-14l0-330c0-11 0-33-2-37z m-186 319c-68 0-125-57-125-125 0-69 57-125 125-125 68 0 125 56 125 125 0 68-57 125-125 125z m0-188c-35 0-62 27-62 63 0 35 27 62 62 62 35 0 63-27 63-62 0-36-28-63-63-63z" horiz-adv-x="1000" />
<glyph glyph-name="lifebuoy-3" unicode="&#xe855;" d="m500 913c-275 0-500-225-500-500 0-276 225-501 500-501 275 0 500 225 500 501 0 275-225 500-500 500z m125-81c141-42 252-154 293-294l-201 0c-24 37-55 68-92 91z m63-419c0-104-84-188-188-188-103 0-187 84-187 188 0 103 84 187 187 187 104 0 188-84 188-187z m-250 433c19 2 41 4 62 4 22 0 43-2 63-4l0-191c-20 4-41 8-63 8-21 0-43-4-62-8z m-63-14l0-203c-37-23-68-54-92-91l-201 0c41 140 152 252 293 294z m-312-419c0 21 2 43 5 62l190 0c-4-19-8-41-8-62 0-22 4-43 8-63l-190 0c-3 20-5 41-5 63z m312-420c-141 43-252 154-293 295l201 0c24-38 55-69 92-92z m188-14c-20-2-41-4-63-4-21 0-43 2-62 4l0 191c19-4 41-7 62-7 22 0 43 3 63 7z m62 14l0 203c37 23 68 54 92 92l201 0c-41-141-152-252-293-295z m117 357c4 20 8 41 8 63 0 21-4 43-8 62l190 0c4-19 6-41 6-62 0-22-2-43-6-63z" horiz-adv-x="1000" />
<glyph glyph-name="resize-full-3" unicode="&#xe856;" d="m670 538l270 267-2-150c0-14 9-24 23-24l16 0c11 0 23 8 23 20l0 226c0 0 0 0 0 0l0 12c0 6 0 12-6 16-4 4-8 6-15 6l-12 0c0 0 0 0 0 0l-225 2c-11 0-21-12-23-24l0-17c2-14 13-24 27-22l147-2-268-266c-12-11-12-31 0-44 14-12 33-12 45 0z m-338-250l-269-268 0 150c2 14-10 24-22 24l-18 0c-11 0-23-8-23-20l0-226c0 0 0 0 0 0l0-12c0-6 0-12 4-16 6-4 10-6 18-6l11 0c0 0 0 0 0 0l225-2c14 2 23 12 23 24l0 17c-2 14-13 24-25 22l-149 2 268 266c12 11 12 31 0 45-12 11-31 11-43 0z m668-340l0 226c0 12-12 20-23 20l-16 0c-14 0-23-10-23-24l2-150-270 268c-12 11-31 11-45 0-12-14-12-34 0-45l268-266-147-2c-14 2-25-8-27-22l0-17c2-12 12-22 23-24l225 2c0 0 0 0 0 0l12 0c7 0 11 2 17 6 4 4 4 10 4 16l0 12c0 0 0 0 0 0z m-893 900l149 2c12-2 23 8 25 22l0 17c0 12-9 24-23 24l-225-2c0 0 0 0 0 0l-11 0c-8 0-12-2-18-6-4-4-4-10-4-16l0-12c0 0 0 0 0 0l0-226c0-12 12-20 23-20l18 0c12 0 22 10 22 24l0 150 269-267c12-12 31-12 43 0 12 13 12 33 0 44z" horiz-adv-x="1000" />
<glyph glyph-name="resize-small-2" unicode="&#xe857;" d="m375 575l-2 224c0 14-10 20-23 22l-16 0c-12 0-21-12-21-24l0-152-260 258c-12 12-31 12-45 0-12-12-12-33 0-45l260-256-149 0c-12 0-23-10-25-23l0-16c0-14 10-23 23-23l225 0c0 0 0 0 0 0l12 0c5 0 11 1 15 5 4 4 6 10 6 16l-2 12c0 0 2 0 2 2z m256-30c4-4 10-5 16-5l11 0c0 0 0 0 0 0l225 0c14 0 23 9 23 23l0 16c-2 13-13 23-25 23l-149 0 260 256c12 12 12 33 0 45-13 12-33 12-45 0l-259-258 0 152c2 12-10 24-22 24l-16 0c-13-2-23-8-23-22l-2-224c0-2 2-2 2-2l-2-12c0-6 2-12 6-16z m-262-265c-4 4-10 8-15 8l-12-2c0 0 0 0 0 0l-225 2c-13 0-23-12-23-24l0-16c2-15 13-23 25-23l149 0-260-258c-12-12-12-33 0-45 14-12 33-12 45 0l260 258 0-152c-2-12 9-24 21-24l16 0c13 2 23 8 23 22l2 224c0 2-2 2-2 2l2 12c0 6-2 12-6 16z m363-55l149 0c12 0 23 8 25 23l0 16c0 12-9 24-23 24l-225 0c0 0 0 0 0 0l-13 0c-6 0-12-4-16-8-4-4-6-10-6-16l2-12c0 0-2 0-2-2l2-224c0-14 10-20 23-22l16 0c14 0 24 12 24 24l-2 152 261-258c12-12 32-12 45 0 12 12 12 33 0 45z" horiz-adv-x="1000" />
<glyph glyph-name="shuffle-5" unicode="&#xe858;" d="m393 418l39 55-131 178-299 0 0-63 266 0z m504 170l-75-66c-9-10-13-24-4-33l6-8c10-8 24-8 33 0l125 113c0 0 0 0 0 0l8 8c4 6 8 12 8 16 0 5-4 11-8 17l-8 8c0 0 0 0 0 0l-126 115c-10 8-24 8-34 0l-6-8c-9-7-5-23 4-31l75-68-227 0-400-563-266 0 0-62 299 0 398 562z m85-507c0 0 0 0 0 0l-126 115c-10 8-24 8-34 0l-6-8c-9-8-5-23 4-31l75-69-196 0-111 174-39-55 119-181 229 0-75-67c-9-9-13-23-4-33l6-8c10-8 24-8 33 0l125 114c0 0 0 0 0 0l8 8c4 5 8 11 8 15 0 6-4 12-8 18z" horiz-adv-x="1000" />
<glyph glyph-name="export-3" unicode="&#xe859;" d="m881-15l-813 0 0 625 252 0 63 60-2 2-313 0c-35 0-62-27-62-62l0-625c0-33 27-63 62-63l813 0c35 0 62 30 62 63l0 490-62-60z m-617 250l62 0c45 250 262 437 522 437 11 0 21 0 33 0l-115-113c-12-14-12-33 0-45 6-6 13-10 21-10 8 0 16 4 24 10l183 190-183 189c-14 12-34 12-45 0-12-12-12-31 0-45l113-113c-10 0-20 0-29 0-297 0-541-217-586-500z" horiz-adv-x="1000" />
<glyph glyph-name="share-3" unicode="&#xe85a;" d="m844 225c-51 0-98-25-125-62l-412 209c4 13 6 27 6 41 0 17-4 35-8 50l412 202c29-40 74-65 127-65 86 0 156 70 156 156 0 86-70 157-156 157-86 0-156-71-156-157 0-11 2-23 3-35l-419-203c-28 31-69 51-116 51-86 0-156-71-156-156 0-86 70-157 156-157 49 0 94 24 123 59l412-209c-1-12-3-25-3-37 0-86 70-157 156-157 86 0 156 71 156 157 0 86-70 156-156 156z m0 625c53 0 94-41 94-94 0-52-41-93-94-93-53 0-94 41-94 93 0 53 41 94 94 94z m-688-531c-52 0-93 41-93 94 0 52 41 93 93 93 53 0 94-41 94-93 0-53-41-94-94-94z m688-344c-53 0-94 41-94 94 0 53 41 94 94 94 53 0 94-41 94-94 0-53-41-94-94-94z" horiz-adv-x="1000" />
<glyph glyph-name="rocket-2" unicode="&#xe85b;" d="m205 49c-19-41-33-66-142-70 3 103 23 115 64 137 18 7 37 17 61 35l-38 49c-19-14-35-22-50-30-69-33-100-66-100-222l0-32 31 0c166 0 198 37 229 102 6 14 10 23 21 43l-47 41c-13-18-21-37-29-53z m483 680c-69 0-125-57-125-125 0-70 56-127 125-127 70 0 127 57 127 127 0 68-57 125-127 125z m0-189c-34 0-63 29-63 64 0 33 29 62 63 62 35 0 64-29 64-62 0-35-29-64-64-64z m312 343c-2 16-14 30-29 30 0 0-174 13-344-49-61-24-111-61-158-116-39-44-78-128-113-197-14-27-26-53-38-72l-173 0c-10 0-18-4-24-10l-115-125c-6-8-10-19-6-29 4-12 12-20 23-22l186-43c14-15 35-39 68-76l71-78 39-162c2-10 10-18 19-22 4-2 8-2 10-2 8 0 16 2 22 8l115 116c6 6 12 13 12 23l0 162c13 10 42 24 68 39 70 39 176 88 221 127 60 55 84 96 105 155 53 140 41 335 41 343z m-100-322c-19-51-37-82-89-129-38-35-145-84-209-119-47-27-77-43-90-55-6-6-10-13-10-23l0-164-66-73-30 120c0 5-4 9-6 13-58 65-144 160-152 168-4 6-10 10-16 10l-144 33 70 74 178 0c12 0 21 6 27 16 14 22 30 55 49 90 31 62 70 146 104 185 41 49 82 79 134 98 116 43 235 47 288 47 2-59 0-191-38-291z" horiz-adv-x="1000" />
<glyph glyph-name="help-2" unicode="&#xe85c;" d="m500 913c-275 0-500-225-500-500 0-276 225-501 500-501 275 0 500 225 500 501 0 275-225 500-500 500z m0-940c-242 0-437 197-437 440 0 242 195 437 437 437 242 0 438-195 438-437 0-243-196-440-438-440z m-47 158l80 0 0 78-80 0z m47 563c-47 0-84-12-113-37-31-24-45-75-45-116l2-1 72 0c0 25 8 60 24 72 17 13 37 19 60 19 25 0 47-8 61-21 13-16 21-35 21-63 0-23-6-43-16-58-11-16-29-39-54-69-26-23-41-43-47-56-6-14-10-39-10-76l74 0c0 23 2 39 6 50 2 12 10 24 24 37 31 30 54 57 72 84 17 28 27 57 27 90 0 45-13 82-43 108-27 25-66 37-115 37z" horiz-adv-x="1000" />
<glyph glyph-name="chart-pie-3" unicode="&#xe85d;" d="m563 821c-18 0-32-14-32-31 0-18 14-32 32-32 220 0 375-160 375-383 0-220-180-400-401-400-222 0-383 160-383 381 0 17-13 31-31 31-17 0-31-14-31-31 0-256 189-444 445-444 256 0 463 208 463 463 0 256-182 446-437 446z m-94-346l0 406c0 18-14 32-31 32-243 0-438-196-438-438 0-18 14-31 31-31l407 0c17 0 31 13 31 31z m-63 31l-341 0c13 184 158 328 341 342z" horiz-adv-x="1000" />
<glyph glyph-name="pen-1" unicode="&#xe85e;" d="m941 864c-33 33-72 49-111 49-62 0-109-40-121-53-18-18-619-617-619-617-4-4-6-10-8-16-14-49-80-272-82-274-4-11 0-23 8-33 6-6 14-8 23-8 2 0 6 0 10 0 2 2 231 77 270 88 4 0 7 4 11 8 26 24 584 576 621 615 39 40 59 81 59 124-2 41-21 80-61 117z m-242-104c16-4 53-15 92-54 39-40 49-84 51-94-123-123-406-403-518-514-9 25-25 53-52 80-34 33-67 53-92 63 109 111 398 398 519 519z m-562-572c17-4 53-18 90-55 27-27 41-58 46-78-42-14-138-47-199-66 18 58 49 150 63 199z m761 480c0-2-3-3-5-5-10 25-28 56-57 87-31 32-63 49-86 61 2 2 2 4 4 4 4 4 35 35 76 35 24 0 47-12 68-33 26-24 40-49 40-72 0-24-12-49-40-77z" horiz-adv-x="1000" />
<glyph glyph-name="edit-2" unicode="&#xe85f;" d="m781-25l-718 0 0 781 437 0 65 61-2 2-500 0c-36 0-63-28-63-63l0-781c0-35 27-63 63-63l718 0c34 0 63 28 63 63l0 457-63-59z m170 897c-27 27-58 41-92 41-52 0-89-34-101-43-14-16-428-428-428-428-4-4-6-8-8-14-9-41-66-224-66-226-4-10-2-20 6-28 4-4 11-8 17-8 4 0 6 2 10 2 0 0 192 63 223 73 4 0 8 2 10 6 19 19 400 394 431 425 33 34 49 67 47 102 0 35-16 68-49 98z m-43-157c-17-17-152-152-404-398l-20-20c-29-9-97-31-150-49 18 57 37 124 47 155 53 54 408 408 422 422 2 2 27 25 56 25 16 0 34-8 49-23 20-18 30-37 30-53 0-18-10-37-30-59z" horiz-adv-x="1000" />
<glyph glyph-name="note-2" unicode="&#xe860;" d="m969 223c0 2 0 2 0 2l0 652c0 2 0 6 0 10-4 14-16 26-31 26-6 0-12-2-16-4l-584-153c-10-2-18-9-22-19-1-6-3-10-3-16l0-558c-30 19-69 31-110 31-96 0-172-63-172-141 0-78 76-141 172-141 96 0 172 63 172 141 0 4 0 8 0 12 0 0 0 0 0 0l0 637 531 138 0-521c-29 19-68 31-109 31-96 0-172-62-172-141 0-78 76-140 172-140 96 0 172 62 172 140 0 4 0 10 0 14z m-766-248c-64 0-109 41-109 78 0 37 45 78 109 78 59 0 102-33 110-66l0 0c0-4 0-6 2-8 0-2 0-2 0-4 0-37-45-78-112-78z m594 156c-65 0-109 41-109 78 0 38 44 79 109 79 64 0 109-41 109-79 0-37-45-78-109-78z" horiz-adv-x="1000" />
<glyph glyph-name="note-alt" unicode="&#xe861;" d="m832 596l-305 307c-9 10-23 12-35 6-13-4-21-16-21-30l0-691c-33 23-76 39-125 39-104 0-188-70-188-156 0-88 84-157 188-157 103 0 187 69 187 157 0 4 0 8 0 10l0 728 256-256c12-13 31-13 43 0 14 12 14 31 0 43z m-486-619c-74 0-125 49-125 94 0 43 51 94 125 94 72 0 123-49 125-92l0-6c-2-43-53-90-125-90z" horiz-adv-x="1000" />
<glyph glyph-name="mic-3" unicode="&#xe862;" d="m498 225l8 0c88 0 150 65 150 152l0 373c0 90-66 163-150 163l-8 0c-84 0-154-73-154-163l0-373c0-86 66-152 154-152z m-92 525c0 55 41 100 92 100l8 0c51 0 88-43 88-100l0-373c0-54-35-89-88-89l-8 0c-53 0-92 37-92 89z m375-181c-17 0-31-14-31-31l0-131c0-186-66-276-203-276l-92 0c-180 0-205 151-205 276l0 131c0 17-14 31-31 31-18 0-31-14-31-31l0-131c0-215 89-338 267-338l14 0 0-94-156 0c-18 0-32-14-32-31 0-18 14-32 32-32l375 0c17 0 31 14 31 32 0 17-14 31-31 31l-157 0 0 94 16 0c121 0 266 58 266 338l0 131c0 17-14 31-32 31z" horiz-adv-x="1000" />
<glyph glyph-name="repeat" unicode="&#xe863;" d="m938 813l-875 0c-36 0-63-27-63-63l0-562c0-35 27-63 63-63l156 0c19 0 31 26 31 32l0 0c0 6-10 31-31 31l-117 0c-22 0-39 18-39 39l0 484c0 22 17 37 39 37l798 2c20 0 38-17 38-37l0-486c0-21-18-39-38-39l-394 0 74 68c10 8 12 22 4 32l-6 7c-10 8-23 8-33 0l-127-115c0 0 0 0 0 0l-8-8c-6-6-8-11-8-17 0-6 2-10 8-16l8-8c0 0 0 0 0 0l125-113c10-8 23-8 33 0l6 8c8 10 6 23-4 31l-76 68 436 0c35 0 62 28 62 63l0 562c0 36-27 63-62 63z" horiz-adv-x="1000" />
<glyph glyph-name="logout-3" unicode="&#xe864;" d="m113 381l543 0c16 0 32 14 32 32 0 17-16 31-32 31l-541 0 114 113c13 12 13 31 0 45-12 12-32 12-43 0l-186-189 186-190c5-6 13-10 21-10 8 0 16 4 22 10 13 12 13 31 0 43z m825 532l-532 0c-35 0-62-28-62-63l0-281 62 0 0 242c0 21 18 39 37 39l455 0c20 0 38-18 38-39l2-799c0-19-18-37-40-37l-455 0c-19 0-37 18-37 37l0 246-62-2 0-281c0-35 27-63 62-63l532 0c35 0 62 28 62 63l0 875c0 35-27 63-62 63z" horiz-adv-x="1000" />
<glyph glyph-name="login-4" unicode="&#xe865;" d="m520 266c-12-12-12-31 0-43 5-6 13-10 23-10 8 0 16 4 22 10l183 190-183 189c-12 12-32 12-45 0-12-14-12-33 0-45l113-113-602 0c-17 0-31-14-31-31 0-18 14-32 31-32l604 0z m418 647l-563 0c-35 0-62-28-62-63l0-281 62 0 0 242c0 21 18 39 39 39l484 0c22 0 38-18 38-39l2-799c0-19-18-37-38-37l-486 0c-21 0-39 18-39 37l0 246-62-2 0-281c0-35 27-63 62-63l563 0c35 0 62 28 62 63l0 875c0 35-27 63-62 63z" horiz-adv-x="1000" />
<glyph glyph-name="list-2" unicode="&#xe866;" d="m94 475l-63 0c-17 0-31-14-31-31l0-63c0-17 14-31 31-31l63 0c17 0 31 14 31 31l0 63c0 17-14 31-31 31z m875-31l-656 0c-18 0-32-14-32-31 0-18 14-32 32-32l656 0c17 0 31 14 31 32 0 17-14 31-31 31z m-875-219l-63 0c-17 0-31-14-31-31l0-63c0-17 14-31 31-31l63 0c17 0 31 14 31 31l0 63c0 17-14 31-31 31z m875-31l-656 0c-18 0-32-14-32-31 0-18 14-32 32-32l656 0c17 0 31 14 31 32 0 17-14 31-31 31z m-875 531l-63 0c-17 0-31-14-31-31l0-63c0-17 14-31 31-31l63 0c17 0 31 14 31 31l0 63c0 17-14 31-31 31z m219-94l656 0c17 0 31 14 31 32 0 17-14 31-31 31l-656 0c-18 0-32-14-32-31 0-18 14-32 32-32z" horiz-adv-x="1000" />
<glyph glyph-name="thumbs-up-3" unicode="&#xe867;" d="m594-88c-283 0-285 12-321 40-19 13-54 23-183 31-8 0-18 4-24 11-1 4-66 98-66 249 0 146 45 214 47 216 6 10 16 16 27 16 106 0 252 135 350 369 17 41 21 69 84 69 35 0 74-26 94-59 41-66 19-209 2-287 64 2 181 2 236 2 76 0 129-45 129-113 2-22-2-51-8-65 18-18 39-43 39-76 2-43-25-74-43-94 4-12 12-29 10-49-2-47-39-78-61-93 2-14 2-39-2-59-15-76-129-108-310-108z m-487 135c112-9 172-23 204-47 23-17 21-25 283-25 80 0 238 4 250 59 4 21-20 43-20 43-6 17 2 35 18 41 0 0 62 23 62 58 2 22-13 35-13 35-10 16-6 34 7 43 0 0 42 26 40 59 0 27-36 45-38 47-7 4-11 12-13 19-2 10 0 20 6 26 0 0 15 25 13 49 0 50-54 52-66 52-78 0-281 0-281 0-12 0-22 4-28 14-6 8-6 20-2 29 32 88 47 227 20 274-8 13-10 27-41 27-6 0-16-4-26-29-105-250-261-395-388-408-12-24-31-77-31-170 0-98 29-172 44-196z" horiz-adv-x="1000" />
<glyph glyph-name="home-3" unicode="&#xe868;" d="m992 411l-469 492c-5 6-13 10-21 10-10 0-18-4-23-10l-471-492c-12-12-12-32 0-43 14-12 33-12 45 0l41 45 0-469c0-18 13-32 31-32l219 0c17 0 31 14 31 32l2 312 248 0 0-312c0-18 14-32 31-32l219 0c18 0 31 14 31 32l0 469 41-45c6-6 16-10 24-10 8 0 15 4 21 10 12 11 12 31 0 43z m-148 58l0-494-156 0 0 313c0 17-14 31-32 31l-310 0c-18 0-31-14-31-31l-2-313-157 0 0 494c0 2 0 4 0 6l346 361 342-359c0-4 0-6 0-8z" horiz-adv-x="1000" />
<glyph glyph-name="th-large-3" unicode="&#xe869;" d="m938-88l-313 0c-35 0-62 28-62 63l0 313c0 35 27 62 62 62l313 0c35 0 62-27 62-62l0-313c0-35-27-63-62-63z m0 376l-313 0 0-313 313 0z m0 187l-313 0c-35 0-62 27-62 63l0 312c0 35 27 63 62 63l313 0c35 0 62-28 62-63l0-312c0-36-27-63-62-63z m0 375l-313 0 0-312 313 0z m-563-938l-312 0c-36 0-63 28-63 63l0 313c0 35 27 62 63 62l312 0c35 0 63-27 63-62l0-313c0-35-28-63-63-63z m0 376l-312 0 0-313 312 0z m0 187l-312 0c-36 0-63 27-63 63l0 312c0 35 27 63 63 63l312 0c35 0 63-28 63-63l0-312c0-36-28-63-63-63z m0 375l-312 0 0-312 312 0z" horiz-adv-x="1000" />
<glyph glyph-name="chart-1" unicode="&#xe86a;" d="m922 694c-43 0-78-35-78-78 0-10 2-18 4-26l-190-164c-13 12-31 18-49 18-21 0-41-8-54-22l-149 75c-4 41-37 72-78 72-43 0-78-35-78-78 0-12 2-24 8-34l-152-175c-8 4-18 6-28 6-43 0-78-36-78-79 0-43 35-78 78-78 43 0 78 35 78 78 0 10-2 20-6 30l155 177c8-1 15-3 23-3 24 0 43 9 57 25l146-72c0-43 35-78 78-78 43 0 79 35 79 78 0 2 0 2 0 4l203 173c9-3 19-5 31-5 43 0 78 35 78 78 0 43-35 78-78 78z" horiz-adv-x="1000" />
<glyph glyph-name="params-1" unicode="&#xe86b;" d="m156 534l0 347c0 18-13 32-31 32-18 0-31-14-31-32l0-347c-55-14-94-63-94-121 0-59 39-108 94-122l0-347c0-18 13-32 31-32 18 0 31 14 31 32l0 347c55 14 94 63 94 122 0 58-39 107-94 121z m-31-184c0 0 0 0 0 0 0 0 0 0 0 0-35 0-62 27-62 63 0 35 27 62 62 62 0 0 0 0 0 0 0 0 0 0 0 0 35 0 63-27 63-62 0-36-28-63-63-63z m406-4l0 535c0 18-13 32-31 32-18 0-31-14-31-32l0-535c-55-14-94-62-94-121 0-59 39-107 94-121l0-160c0-18 13-32 31-32 18 0 31 14 31 32l0 160c55 14 94 62 94 121 0 59-39 107-94 121z m-31-183c0 0 0 0 0 0 0 0 0 0 0 0-35 0-62 27-62 62 0 35 27 63 62 63 0 0 0 0 0 0 0 0 0 0 0 0 35 0 63-28 63-63 0-35-28-62-63-62z m406 558l0 160c0 18-13 32-31 32-18 0-31-14-31-32l0-160c-55-14-94-62-94-121 0-59 39-107 94-121l0-535c0-18 13-32 31-32 18 0 31 14 31 32l0 535c55 14 94 62 94 121 0 59-39 107-94 121z m-31-183c0 0 0 0 0 0 0 0 0 0 0 0-35 0-62 27-62 62 0 35 27 63 62 63 0 0 0 0 0 0 0 0 0 0 0 0 35 0 63-28 63-63 0-35-28-62-63-62z" horiz-adv-x="1000" />
<glyph glyph-name="thumbs-down-3" unicode="&#xe86c;" d="m406 913c284 0 285-12 321-40 19-13 54-23 183-31 8 0 18-4 24-11 2-4 66-98 66-249 0-146-45-214-47-216-6-10-15-16-27-16-106 0-252-135-350-369-17-41-21-69-84-69-35 0-74 26-94 59-41 67-21 209-1 287-65-2-182-2-237-2-76 0-129 45-129 114-2 21 2 50 8 64-17 18-39 43-39 76-2 43 25 74 43 94-4 12-12 29-10 49 2 47 39 78 61 94-2 13-2 39 2 58 15 76 129 108 310 108z m487-135c-112 10-172 23-203 47-24 17-22 25-284 25-80 0-238-4-250-59-4-21 20-43 20-43 6-17-2-35-18-41 0 0-62-23-62-58-2-22 13-35 13-35 10-16 6-33-7-43 0 0-41-26-39-59 0-27 35-45 35-47 8-4 13-11 15-19 2-10 0-20-6-26 0 0-15-25-13-48 0-51 54-53 66-53 78 0 281 0 281 0 12 0 22-4 28-14 6-8 6-19 2-29-31-88-47-227-20-274 8-13 10-27 41-27 6 0 16 4 26 29 105 250 261 395 388 409 12 23 32 76 32 169 0 98-30 172-45 196z" horiz-adv-x="1000" />
<glyph glyph-name="direction-3" unicode="&#xe86d;" d="m900 811l-330-768-115 338-336 102 781 328m81 102c-6 0-14-2-22-6l-932-397c-33-13-35-41-5-60l386-121 127-393c8-16 20-24 30-24 11 0 23 10 31 28l398 932c12 25 4 41-13 41z" horiz-adv-x="1000" />
<glyph glyph-name="to-start-2" unicode="&#xe86e;" d="m951 848c0 24-11 45-31 55-10 6-20 8-31 8-10 0-22-2-32-10l-718-436c-16-9-28-25-30-43l0 459c0 18-13 32-31 32-17 0-31-14-31-32l0-937c0-18 14-32 31-32 18 0 31 14 31 32l0 459c2-18 14-33 30-43l718-436c10-8 22-10 34-10 9 0 21 2 31 8 19 10 31 31 31 55z m-779-435l717 435 2-871z" horiz-adv-x="1000" />
<glyph glyph-name="fast-backward-3" unicode="&#xe86f;" d="m561 719l-495-306 495-307 0 240 375-240 0 613-375-240 0 248m-2 55c9 0 21-2 31-8 19-12 33-31 33-55l0-129 291 182c10 6 22 10 33 10 10 0 14-2 24-8 21-12 27-31 27-55l0-613c0-24-8-43-27-55-10-6-18-8-28-8-11 0-19 4-31 10l-289 182 0-129c0-24-14-43-33-55-10-6-22-8-31-8-12 0-24 4-34 10l-494 307c-17 12-29 31-29 53 0 21 12 41 29 52l494 307c10 6 22 10 34 10z" horiz-adv-x="1000" />
<glyph glyph-name="play-3" unicode="&#xe870;" d="m141 848l718-435-718-436 0 871m0 63c-10 0-20-2-30-8-19-10-33-31-33-55l0-871c0-24 12-45 31-55 10-6 20-8 32-8 11 0 23 2 33 10l719 436c17 12 29 31 29 53 0 21-12 41-29 52l-719 436c-10 8-22 10-33 10z" horiz-adv-x="1000" />
<glyph glyph-name="pause-3" unicode="&#xe871;" d="m406 913l-218 0c-18 0-32-14-32-32l0-937c0-18 14-32 32-32l218 0c18 0 32 14 32 32l0 937c0 18-14 32-32 32z m-31-938l-156 0 0 875 156 0z m438 938l-219 0c-16 0-31-14-31-32l0-937c0-18 15-32 31-32l219 0c17 0 31 14 31 32l0 937c0 18-14 32-31 32z m-32-938l-156 0 0 875 156 0z" horiz-adv-x="1000" />
<glyph glyph-name="fast-forward-3" unicode="&#xe872;" d="m440 719l494-306-494-307 0 240-375-240 0 613 375-240 0 248m1 55c-9 0-21-2-31-8-19-12-33-31-33-55l0-129-291 182c-10 6-21 10-33 10-10 0-14-2-24-8-19-12-27-31-27-55l0-613c0-24 8-43 27-55 10-6 18-8 28-8 11 0 19 4 31 10l289 182 0-129c0-24 14-43 33-55 10-6 22-8 31-8 12 0 24 4 34 10l494 307c17 12 29 31 29 53 0 21-12 41-29 52l-494 307c-10 6-22 10-34 10z" horiz-adv-x="1000" />
<glyph glyph-name="to-end-2" unicode="&#xe873;" d="m922 913c-18 0-31-14-31-32l0-459c-2 18-14 34-30 43l-718 436c-10 8-22 10-32 10-11 0-21-2-31-8-19-10-31-31-31-55l-2-871c0-24 12-45 31-55 10-6 22-8 31-8 12 0 24 2 34 10l718 436c16 10 28 25 30 43l0-459c0-18 13-32 31-32 18 0 31 14 31 32l0 937c0 18-13 32-31 32z m-813-936l2 871 717-435z" horiz-adv-x="1000" />
<glyph glyph-name="calendar-3" unicode="&#xe874;" d="m938 819l-250 0 0 62c0 18-14 32-32 32-17 0-31-14-31-32l0-62-250 0 0 62c0 18-14 32-31 32-18 0-31-14-31-32l0-62-250 0c-36 0-63-28-63-63l0-781c0-35 27-63 63-63l875 0c35 0 62 28 62 63l0 781c0 35-27 63-62 63z m0-844l-875 0 0 781 250 0 0-31c0-18 13-31 31-31 17 0 31 13 31 31l0 31 250 0 0-31c0-18 14-31 31-31 18 0 32 13 32 31l0 31 250 0z m-219 438l62 0c18 0 32 13 32 31l0 62c0 18-14 32-32 32l-62 0c-18 0-31-14-31-32l0-62c0-18 13-31 31-31z m0-250l62 0c18 0 32 13 32 31l0 62c0 18-14 32-32 32l-62 0c-18 0-31-14-31-32l0-62c0-18 13-31 31-31z m-188 125l-62 0c-18 0-31-14-31-32l0-62c0-18 13-31 31-31l62 0c18 0 32 13 32 31l0 62c0 18-14 32-32 32z m0 250l-62 0c-18 0-31-14-31-32l0-62c0-18 13-31 31-31l62 0c18 0 32 13 32 31l0 62c0 18-14 32-32 32z m-250 0l-62 0c-18 0-31-14-31-32l0-62c0-18 13-31 31-31l62 0c18 0 32 13 32 31l0 62c0 18-14 32-32 32z m0-250l-62 0c-18 0-31-14-31-32l0-62c0-18 13-31 31-31l62 0c18 0 32 13 32 31l0 62c0 18-14 32-32 32z" horiz-adv-x="1000" />
<glyph glyph-name="lightbulb-4" unicode="&#xe875;" d="m500 913c-193 0-346-159-346-352 0-145 73-215 129-266 37-31 61-50 61-76l0-53c0-1 0-1 0-3l0 0 0-90c0-96 62-161 158-161 92 0 154 65 154 161l0 90 0 0c0 2 0 2 0 3l0 53c0 37 28 59 69 96 56 49 121 109 121 246 0 193-153 352-346 352z m-2-938c-58 0-92 37-92 98l0 41c22-8 53-14 94-14 41 0 70 6 94 14l0-41c0-63-35-98-96-98z m186 387c-43-37-90-74-90-143l0-39c-16-8-43-17-94-17-55 0-80 9-94 15l0 41c0 55-41 88-82 123-52 49-107 102-107 219 0 160 125 289 283 289 158 0 283-129 283-289 0-107-49-154-99-199z" horiz-adv-x="1000" />
<glyph glyph-name="diagram" unicode="&#xe876;" d="m266 600l-219 0c-18 0-31-14-31-31l0-625c0-18 13-32 31-32l219 0c17 0 31 14 31 32l0 625c0 17-14 31-31 31z m-32-625l-156 0 0 563 156 0z m375 440l-218 0c-18 0-32-14-32-32l0-439c0-18 14-32 32-32l218 0c18 0 32 14 32 32l0 439c0 18-14 32-32 32z m-31-440l-156 0 0 377 156 0z m375 938l-219 0c-17 0-31-14-31-32l0-937c0-18 14-32 31-32l219 0c18 0 31 14 31 32l0 937c0 18-13 32-31 32z m-31-938l-156 0 0 875 156 0z" horiz-adv-x="1000" />
<glyph glyph-name="arrow-up" unicode="&#xe877;" d="m1000 413c0 275-225 500-500 500-275 0-500-225-500-500 0-276 225-501 500-501 275 0 500 225 500 501z m-937 0c0 242 195 437 437 437 242 0 438-195 438-437 0-243-196-438-438-438-242 0-437 195-437 438z m468-219l0 351 114-113c11-12 31-12 45 0 11 12 11 33 0 45l-190 184-189-184c-6-6-10-14-10-21 0-10 4-18 10-24 11-12 31-12 43 0l115 115 0-353c0-18 13-31 31-31 18 0 31 13 31 31z" horiz-adv-x="1000" />
<glyph glyph-name="arrow-right" unicode="&#xe878;" d="m500 913c-275 0-500-225-500-500 0-276 225-501 500-501 275 0 500 225 500 501 0 275-225 500-500 500z m0-940c-242 0-437 197-437 440 0 242 195 437 437 437 242 0 438-195 438-437 0-243-196-440-438-440z m20 629c-12-14-12-33 0-45l113-113-352 0c-17 0-31-14-31-31 0-18 14-32 31-32l354 0-115-115c-12-12-12-31 0-43 5-6 13-10 23-10 8 0 16 4 22 10l183 190-183 189c-12 12-34 12-45 0z" horiz-adv-x="1000" />
<glyph glyph-name="arrow-left" unicode="&#xe879;" d="m500 913c-275 0-500-225-500-500 0-276 225-501 500-501 275 0 500 225 500 501 0 275-225 500-500 500z m0-940c-242 0-437 197-437 440 0 242 195 437 437 437 242 0 438-195 438-437 0-243-196-440-438-440z m219 471l-352 0 114 113c11 12 11 31 0 45-12 12-34 12-45 0l-184-189 184-190c5-6 13-10 21-10 10 0 18 4 24 10 11 12 11 31 0 43l-116 115 354 0c17 0 31 14 31 32 0 17-14 31-31 31z" horiz-adv-x="1000" />
<glyph glyph-name="arrow-down" unicode="&#xe87a;" d="m0 413c0-276 225-501 500-501 275 0 500 225 500 501 0 275-225 500-500 500-275 0-500-225-500-500z m940 0c0-243-198-438-440-438-242 0-437 195-437 438 0 242 195 437 437 437 242 0 440-195 440-437z m-471 218l0-351-113 113c-12 12-32 12-45 0-12-12-12-33 0-45l189-183 190 183c5 6 9 14 9 24 0 7-4 15-9 21-12 12-32 12-43 0l-116-115 0 353c0 18-13 32-31 32-18 0-31-14-31-32z" horiz-adv-x="1000" />
<glyph glyph-name="block-3" unicode="&#xe87b;" d="m500 913c-275 0-500-225-500-500 0-276 225-501 500-501 275 0 500 225 500 501 0 275-225 500-500 500z m-437-500c0 109 41 209 107 287l617-618c-76-68-178-109-287-109-242 0-437 197-437 440z m769-286l-617 616c76 66 176 107 285 107 242 0 438-195 438-437 0-110-41-209-106-286z" horiz-adv-x="1000" />
<glyph glyph-name="comment-3" unicode="&#xe87c;" d="m500 788c242 0 438-141 438-313 0-172-196-312-438-312l-16 0-9 0c-18 0-30 0-47 3l-35 4-22-27c-12-12-62-55-121-84 12 31 20 66 22 100l0 2 0 43-36 17c-109 57-173 151-173 254 0 172 195 313 437 313m0 62c-275 0-500-168-500-375 0-129 76-242 209-309 0-1 0-1 0-1 0-57-31-120-51-151l0 0c-2-4-2-6-2-12 0-15 12-27 30-27 2 0 5 0 5 0 2 0 2 0 2 0 98 16 205 104 225 129 23-4 37-4 57-4 7 0 15 0 25 0 275 0 500 168 500 375 0 207-225 375-500 375z" horiz-adv-x="1000" />
<glyph glyph-name="camera-3" unicode="&#xe87d;" d="m623 694c2 0 2 0 2-2l0-125c0-24 14-43 33-55 10-6 20-8 30-8 13 0 27 4 37 12l213 119 0-445-213 117c-12 8-24 12-37 12-10 0-20-4-30-8-19-10-33-31-33-55l0-123c0-2 0-2-2-2l-558 0c0 0-2 0-2 2l0 559c0 2 2 2 2 2l558 0m344 31c-6 0-20-2-27-10l-252-148 0 125c0 35-30 64-65 64l-558 0c-36 0-65-29-65-64l0-559c0-35 29-64 65-64l558 0c35 0 65 29 65 64l0 123 257-150c8-8 16-6 22-6 8 0 12 2 14 2 11 4 19 16 19 29l0 563c0 12-8 25-19 29-2 0-6 2-14 2z" horiz-adv-x="1000" />
<glyph glyph-name="camera-alt-1" unicode="&#xe87e;" d="m906 694l-144 0-74 125-375 0-75-125-144 0c-31 0-94-31-94-94l0-500c0-53 47-94 88-94l820 0c41 0 92 43 92 92l0 502c0 31-31 94-94 94z m32-596c0-12-20-29-30-29l-820 0c-8 0-25 15-25 31l0 500c0 22 27 31 31 31l179 0 18 32 57 93 306 0 57-93 16-32 179 0c22 0 32-29 32-31z m-438 502c-121 0-219-98-219-219 0-121 98-218 219-218 121 0 219 97 219 218 0 121-98 219-219 219z m0-375c-86 0-156 70-156 156 0 86 70 157 156 157 86 0 156-71 156-157 0-86-70-156-156-156z" horiz-adv-x="1000" />
<glyph glyph-name="ok-1" unicode="&#xe87f;" d="m500 913c-275 0-500-225-500-500 0-276 225-501 500-501 275 0 500 225 500 501 0 275-225 500-500 500z m0-940c-242 0-437 197-437 440 0 242 195 437 437 437 242 0 438-195 438-437 0-243-196-440-438-440z m199 623l-293-295-133 131c-11 12-31 12-42 0-14-12-14-31 0-43l154-156c12-12 31-12 45 0 0 2 2 4 2 6l312 312c12 12 12 31 0 45-12 12-33 12-45 0z" horiz-adv-x="1000" />
<glyph glyph-name="time" unicode="&#xe880;" d="m500 913c-275 0-500-225-500-500 0-276 225-501 500-501 275 0 500 225 500 501 0 275-225 500-500 500z m0-940c-242 0-437 197-437 440 0 242 195 437 437 437 242 0 438-195 438-437 0-243-196-440-438-440z m31 451l0 301c0 18-13 31-31 31-18 0-31-13-31-31l0-312c0-10 4-18 10-24 0 0 0 0 2 0l154-156c12-12 31-12 45 0 11 14 11 33 0 45z" horiz-adv-x="1000" />
<glyph glyph-name="cancel-1" unicode="&#xe881;" d="m500 913c-275 0-500-225-500-500 0-276 225-501 500-501 275 0 500 225 500 501 0 275-225 500-500 500z m0-940c-242 0-437 197-437 440 0 242 195 437 437 437 242 0 438-195 438-437 0-243-196-440-438-440z m178 617c-14 12-33 12-45 0l-133-133-133 133c-11 12-31 12-45 0-11-13-11-33 0-45l133-132-133-133c-11-12-11-32 0-45 14-12 34-12 45 0l133 133 133-133c12-12 31-12 45 0 12 13 12 33 0 45l-133 133 133 132c12 12 12 32 0 45z" horiz-adv-x="1000" />
<glyph glyph-name="download-3" unicode="&#xe882;" d="m746 659c-45 115-139 189-279 189-180 0-307-135-317-308-87-28-150-118-150-217 0-123 96-227 211-227l27 0c18 0 32 14 32 31 0 18-14 32-32 32l-27 0c-80 0-150 76-150 164 0 78 56 150 125 162l29 4-4 29 0 0c0 152 100 268 256 268 123 0 193-63 226-166l6-22 24 0c115-4 217-98 217-215 0-105-71-224-178-224l-8 0c-18 0-31-14-31-32 0-17 13-31 31-31l0 0c156 4 246 154 246 287 0 145-113 260-254 276z m-115-504c-8 10-24 10-31 0l-69-76 0 316c0 16-13 31-31 31-18 0-31-15-31-31l0-316-67 74c-9 10-23 12-31 2l-8-4c-9-10-9-24 0-33l112-125c0 0 0 0 0 0l9-8c4-6 10-8 16-8 6 0 12 2 16 8l7 8c0 0 0 0 0 0l116 127c9 9 9 19 0 29z" horiz-adv-x="1000" />
<glyph glyph-name="upload-3" unicode="&#xe883;" d="m746 659c-45 115-139 189-279 189-180 0-307-135-317-308-87-28-150-118-150-217 0-123 96-227 211-227l90 0c17 0 31 14 31 31 0 18-14 32-31 32l-90 0c-80 0-150 76-150 164 0 78 56 150 125 162l29 4-4 29 0 0c0 152 100 268 256 268 123 0 193-63 226-166l6-22 22 0c117-4 219-98 219-215 0-105-71-224-178-224l-71 0c-17 0-31-14-31-32 0-17 14-31 31-31l71 0c156 4 238 154 238 287 0 145-113 260-254 276z m-223-248c0 0 0 0 0 0l-7 7c-4 4-10 8-16 8-6 0-12-4-16-8l-9-7c0 0 0 0 0 0l-112-125c-9-10-9-26 0-34l8-5c8-10 22-6 31 3l67 73 0-315c0-17 13-31 31-31 18 0 31 14 31 31l0 315 69-75c7-9 23-13 31-3l8 5c9 8 9 24 0 34z" horiz-adv-x="1000" />
<glyph glyph-name="doc-3" unicode="&#xe884;" d="m547 913l-344 0c-35 0-62-28-62-63l0-875c0-35 27-63 62-63l594 0c35 0 62 28 62 63l0 625z m250-338l0-6-281 0 0 281 6 0z m-594-600l0 875 250 0 0-344 344 0 0-531z" horiz-adv-x="1000" />
<glyph glyph-name="mail-3" unicode="&#xe885;" d="m1000 686c0 6 0 12-4 18-8 35-31 52-74 52l-813 0c-37 0-78-13-97-41-2 0-2-2-4-4-6-7-8-17-8-25 0-2 0-6 0-8l0-500c0-53 57-109 109-109l813 0c53 0 78 56 78 109l0 500c0 2 0 6 0 8z m-891 8l813 0c0 0 0 0 0 0l-422-336-420 334c10 2 22 2 29 2z m813-563l-813 0c-17 0-46 30-46 47l0 447 418-334c5-3 11-5 19-5 8 0 14 2 20 5l418 334 0-447c0-17 2-47-16-47z" horiz-adv-x="1000" />
<glyph glyph-name="eye-3" unicode="&#xe886;" d="m504 598c-104 0-188-84-188-187 0-104 84-188 188-188 103 0 187 84 187 188 0 103-84 187-187 187z m0-312c-70 0-127 58-127 127 0 68 57 125 125 125 68 0 125-57 125-125 0-69-55-127-123-127z m496 134c0 2 0 2-2 4 0 2 0 2 0 2 0 0 0 2 0 2-92 209-287 328-496 328-209 0-408-119-500-326 0-2 0-2 0-4 0 0 0 0-2-2 0 0 0-2 0-4 0-4 0-5 0-7 0-4 0-6 0-10 0-2 0-2 0-4 2-2 2-2 2-2 0 0 0-2 0-2 92-209 289-326 498-326 209 0 406 117 498 324 0 2 0 2 0 4 0 0 0 0 2 2 0 0 0 2 0 4 0 4 0 6 0 8 0 4 0 5 0 9z m-500-289c-178 0-352 92-437 282 85 185 261 281 439 281 178 0 350-96 436-283-86-186-260-280-438-280z" horiz-adv-x="1000" />
<glyph glyph-name="flag-4" unicode="&#xe887;" d="m664 819c-156 0-197 94-396 94-127 0-205-96-205-96l0-873c0-18 13-32 31-32 17 0 31 14 31 32l0 398c33 20 78 39 135 39 199 0 256-93 412-93 156 0 266 93 266 93l0 532c0 0-118-94-274-94z m211-404c-35-24-109-65-203-65-61 0-104 18-156 39-65 26-139 55-256 55-53 0-98-14-135-31l0 378c23 22 74 59 143 59 91 0 144-21 199-45 55-23 111-49 197-49 84 0 156 24 211 49z" horiz-adv-x="1000" />
<glyph glyph-name="folder-3" unicode="&#xe888;" d="m346 741l78-76 19-18 495 0 0-563-875 0 0 657 281 0m31 62l-312 0c-36 0-63-27-63-62l0-657c0-35 27-62 63-62l875 0c35 0 62 27 62 62l0 563c0 35-27 62-62 62l-469 0z" horiz-adv-x="1000" />
<glyph glyph-name="heart-3" unicode="&#xe889;" d="m281 801c32 0 86-15 176-103l45-43 43 43c62 64 129 103 174 103 60 0 107-19 154-66 43-43 67-102 67-162 0-61-24-119-69-162-4-4-191-209-349-379-8-8-16-8-22-8-4 0-12 0-19 8-40 43-319 353-350 386-45 43-68 100-68 163 0 60 23 119 68 162 41 41 92 58 150 58m0 63c-74 0-140-24-195-78-115-114-115-299 0-413 33-33 350-384 350-384 17-18 41-28 64-28 23 0 49 10 66 28 0 0 346 373 350 377 115 115 115 299 0 414-57 56-119 84-197 84-74 0-156-59-219-121-62 62-143 121-219 121z" horiz-adv-x="1000" />
<glyph glyph-name="info-3" unicode="&#xe88a;" d="m563 194l-32 0 0 279c0 0 0 0 0 2 0 0 0 0 0 0 0 18-13 31-31 31l-62 0c-18 0-32-13-32-31 0-18 14-31 32-31l31 0 0-250-31 0c-18 0-32-14-32-31 0-18 14-32 32-32l125 0c17 0 31 14 31 32 0 17-14 31-31 31z m-63 375c35 0 63 27 63 62 0 35-28 63-63 63-35 0-62-28-62-63 0-35 27-62 62-62z m0 344c-275 0-500-225-500-500 0-276 225-501 500-501 275 0 500 225 500 501 0 275-225 500-500 500z m0-940c-242 0-437 197-437 440 0 242 195 437 437 437 242 0 438-195 438-437 0-243-196-440-438-440z" horiz-adv-x="1000" />
<glyph glyph-name="key-3" unicode="&#xe88b;" d="m641 913c-157 0-282-127-282-282 0-70 26-134 67-183-8 2-18-2-24-8l-314-318c-12-12-12-32 0-43 0 0 0 0 0 0 0 0 0-2 0-2l154-157c12-11 31-11 43 0 14 14 14 33 0 45l-131 135 80 82 133-137c12-11 31-11 43 0 14 14 14 34 0 45l-133 135 170 170c6 6 8 16 8 23 51-43 115-68 186-68 154 0 281 125 281 281 0 155-127 282-281 282z m0-500c-121 0-219 97-219 218 0 121 98 219 219 219 119 0 218-98 218-219 0-121-99-218-218-218z" horiz-adv-x="1000" />
<glyph glyph-name="link-3" unicode="&#xe88c;" d="m289 198c6-6 14-10 22-10 7 0 15 4 21 10l379 381c14 11 14 31 0 44-12 12-31 12-43 0l-379-382c-12-12-12-32 0-43z m176 66c10-45 0-90-35-125l-127-123c-28-27-63-41-100-41-37 0-72 14-99 41-55 55-55 145 0 199l123 127c27 26 62 41 99 41 14 0 26-2 37-6l49 49c-27 14-56 20-86 20-53 0-103-20-144-61l-123-127c-79-78-79-207 0-287 41-39 91-59 144-59 53 0 104 20 145 59l125 123c60 61 74 145 41 219z m476 590c-41 39-91 59-144 59-53 0-104-20-145-59l-125-123c-62-63-76-156-39-233l49 49c-14 47-4 102 33 139l127 123c28 27 63 41 100 41 37 0 72-14 100-41 54-55 54-144 0-199l-127-125c-26-28-61-41-98-41-10 0-20-2-27 0l-51-49c25-12 51-14 78-14 51 0 103 20 143 59l126 127c79 78 79 207 0 287z" horiz-adv-x="1000" />
<glyph glyph-name="lock-3" unicode="&#xe88d;" d="m781 538l-31 0 0 119c0 142-103 256-252 256-146 0-248-116-248-256l0-119-31 0c-69 0-125-57-125-125l0-375c0-69 56-126 125-126l562 0c69 0 125 57 125 126l0 375c0 68-56 125-125 125z m-468 119c0 107 72 193 185 193 113 0 190-84 190-193l0-119-375 0z m531-619c0-36-28-63-63-63l-562 0c-35 0-63 27-63 63l0 375c0 35 28 62 63 62l562 0c35 0 63-27 63-62z m-344 312c-35 0-62-27-62-62 0-24 11-43 31-55l0-102c0-17 13-31 31-31 18 0 31 14 31 31l0 102c20 12 32 31 32 55 0 35-28 62-63 62z" horiz-adv-x="1000" />
<glyph glyph-name="unlock" unicode="&#xe88e;" d="m781 536l-445 0-18 74c-27 101 22 205 131 234 108 29 203-33 233-138l11-53c6-16 24-26 39-22 18 4 28 22 22 39l-12 53c-37 137-168 219-308 182-145-39-211-176-176-313l14-56-53 0c-69 0-125-55-125-125l0-375c0-69 56-126 125-126l562 0c69 0 125 57 125 126l0 375c0 70-56 125-125 125z m63-500c0-34-28-63-63-63l-562 0c-35 0-63 29-63 63l0 375c0 35 28 62 63 62l562 0c35 0 63-27 63-62z m-344 312c-35 0-62-27-62-62 0-22 11-43 31-53l0-104c0-15 13-31 31-31 18 0 31 16 31 31l0 104c20 10 32 31 32 53 0 35-28 62-63 62z" horiz-adv-x="1000" />
<glyph glyph-name="search-3" unicode="&#xe88f;" d="m990-35l-302 307c56 68 89 154 89 250 0 215-173 391-390 391-215 0-391-176-391-391 0-215 176-391 391-391 97 0 187 37 256 96l304-305c12-12 32-12 43 0 14 12 14 31 0 43z m-603 229c-182 0-328 146-328 328 0 182 146 328 328 328 181 0 330-146 330-328 0-182-149-328-330-328z" horiz-adv-x="1000" />
<glyph glyph-name="zoom-in-2" unicode="&#xe890;" d="m990-35l-275 280c58 70 94 162 94 261 0 225-180 407-405 407-224 0-408-182-408-407 0-224 184-408 408-408 102 0 196 39 266 102l277-278c12-12 32-12 43 0 14 12 14 31 0 43z m-588 198c-187 0-343 154-343 343 0 190 156 344 343 344 190 0 344-154 344-344 0-189-154-343-344-343z m157 375l-125 0 0 125c0 17-14 31-32 31-17 0-31-14-31-31l0-125-125 0c-17 0-31-14-31-32 0-17 14-31 31-31l125 0 0-125c0-18 14-31 31-31 18 0 32 13 32 31l0 125 125 0c17 0 31 14 31 31 0 18-14 32-31 32z" horiz-adv-x="1000" />
<glyph glyph-name="zoom-out-2" unicode="&#xe891;" d="m990-35l-275 280c58 70 94 162 94 261 0 225-180 407-405 407-224 0-408-182-408-407 0-224 184-408 408-408 102 0 196 39 266 102l277-278c12-12 32-12 43 0 14 12 14 31 0 43z m-588 198c-187 0-343 154-343 343 0 190 156 344 343 344 190 0 344-154 344-344 0-189-154-343-344-343z m157 375l-313 0c-17 0-31-14-31-32 0-17 14-31 31-31l313 0c17 0 31 14 31 31 0 18-14 32-31 32z" horiz-adv-x="1000" />
<glyph glyph-name="attach-7" unicode="&#xe892;" d="m168-72c-41 0-82 18-115 51-73 72-73 189 0 262l560 595c88 88 223 79 321-19 43-43 68-108 66-174 0-64-25-129-70-172l-424-451c-12-14-31-14-43-2-14 12-14 31-2 45l424 451c33 33 53 80 53 131 2 49-16 96-49 129-61 58-158 92-231 17l-560-595c-49-47-49-125 0-174 21-22 49-33 76-31 29 2 57 17 82 41l445 474c16 16 49 57 16 90-20 18-31 18-35 18-14-2-28-10-43-26l-336-357c-12-12-31-14-43-2-14 12-14 33-2 45l336 357c27 28 54 41 82 45 21 0 53-4 86-37 47-47 41-119-16-176l-445-474c-37-37-80-57-123-61-2 0-6 0-10 0z" horiz-adv-x="1000" />
<glyph glyph-name="paper-plane-4" unicode="&#xe893;" d="m981 913c-6 0-14-2-22-6l-932-395c-35-15-37-43-5-60l263-164c31-20 72-63 92-92l158-260c8-14 20-22 30-22 11 0 23 8 31 26l398 932c10 25 4 41-13 41z m-663-571l-214 133 716 305-461-469c-13 12-27 23-41 31z m241-324l-127 209c-8 12-18 25-28 39l463 471z" horiz-adv-x="1000" />
<glyph glyph-name="add" unicode="&#xe894;" d="m500 913c-275 0-500-225-500-500 0-276 225-501 500-501 275 0 500 225 500 501 0 275-225 500-500 500z m0-940c-242 0-437 197-437 440 0 242 195 437 437 437 242 0 438-195 438-437 0-243-196-440-438-440z m219 471l-188 0 0 187c0 18-13 32-31 32-18 0-31-14-31-32l0-187-188 0c-17 0-31-14-31-31 0-18 14-32 31-32l188 0 0-187c0-18 13-31 31-31 18 0 31 13 31 31l0 187 188 0c17 0 31 14 31 32 0 17-14 31-31 31z" horiz-adv-x="1000" />
<glyph glyph-name="location-3" unicode="&#xe895;" d="m504 913c-205 0-379-174-379-381 0-217 201-438 336-594 2 0 23-26 51-26l2 0c27 0 49 26 49 26 127 146 312 387 312 594 0 207-135 381-371 381z m12-934c0 0-2-2-4-2-2 0-2 2-4 2l-16 19c-129 147-304 350-304 534 0 172 144 318 316 318 213 0 309-160 309-318 0-141-100-326-297-553z m-14 744c-104 0-187-84-187-187 0-104 83-188 187-188 104 0 188 84 188 188 0 103-84 187-188 187z m0-312c-70 0-127 58-127 127 0 68 57 125 125 125 68 0 125-57 125-125 0-69-55-127-123-127z" horiz-adv-x="1000" />
<glyph glyph-name="power-1" unicode="&#xe896;" d="m686 752c-16 8-36 0-41-15-8-16-2-33 13-41 158-74 244-246 209-418-41-203-240-336-445-293-98 19-180 76-234 160-57 86-77 186-55 285 23 117 99 213 207 266 16 8 23 25 16 41-8 15-26 21-41 15-127-60-215-173-245-310-23-115 0-233 65-330 64-98 160-166 275-190 30-6 59-8 88-8 205 0 389 143 432 352 41 199-61 400-244 486z m-186-246c18 0 31 14 31 32l0 343c0 18-13 32-31 32-18 0-31-14-31-32l0-343c0-18 13-32 31-32z" horiz-adv-x="1000" />
<glyph glyph-name="refresh-alt" unicode="&#xe897;" d="m486 36c0 0 0 0 0 0l-89 140c-8 10-22 14-32 8l-8-4c-11-6-11-21-5-33l58-88c-6 0-10 2-15 2-100 27-186 96-233 187-47 88-55 188-25 282 31 93 97 170 185 215 16 7 22 27 14 41-8 15-27 21-41 13-102-52-180-142-215-252-35-109-25-224 27-326 57-107 155-187 274-219 0 0 2 0 4 0l-80-41c-12-6-14-19-8-29l2-8c8-10 17-14 29-8l145 75c0 0 2 0 2 0l9 5c4 2 8 8 10 12 2 6 0 12-2 18z m407 564c-57 107-153 186-270 217-8 2-17 4-25 6l78 39c10 6 17 19 10 29l-2 10c-6 10-20 14-32 8l-144-75c0 0-2 0-2 0l-10-5c-4-4-8-8-10-14-2-6 0-12 2-16l6-9c0 0 0 0 0-2l90-139c8-12 22-16 31-10l8 6c10 6 12 21 4 31l-57 90c12-2 26-4 37-8 102-25 184-93 231-187 47-86 55-188 25-281-31-94-95-170-181-215-16-8-22-26-14-41 6-10 16-16 27-16 4 0 10 0 14 2 102 53 176 143 211 252 35 109 25 225-27 328z" horiz-adv-x="1000" />
<glyph glyph-name="refresh" unicode="&#xe898;" d="m500 913c-250 0-453-204-453-454 0-234 180-431 412-451l-88-45c-12-6-19-19-12-31l2-8c8-12 22-15 34-10l148 79c2 0 2 0 2 0l10 5c6 2 10 8 10 14 1 4 1 12-2 16l-6 10c0 0 0 2 0 2l-92 144c-8 10-22 14-33 8l-8-6c-10-6-12-21-4-31l55-86c0 0-2 2-2 2-203 11-364 183-364 388 0 215 174 391 391 391 215 0 391-176 391-391 0-123-57-238-157-312-13-10-15-29-5-43 9-14 29-18 43-8 115 88 181 219 181 363 0 250-203 454-453 454z" horiz-adv-x="1000" />
<glyph glyph-name="settings-alt" unicode="&#xe899;" d="m938 506l-81 20c-5 19-13 39-23 56l43 73c16 25 25 64 0 88l-43 45c-25 23-66 19-92 2l-70-45c-18 9-37 17-57 25l-17 80c-6 29-32 63-67 63l-62 0c-35 0-57-34-63-63l-19-80c-22-8-43-16-61-25l-72 45c-25 17-66 21-92-2l-43-45c-25-24-17-63 0-88l45-76c-8-18-16-36-21-53l-80-20c-30-4-63-31-63-64l0-63c0-35 33-56 63-62l82-22c3-15 11-33 19-48l-45-77c-17-25-25-64 0-88l43-44c26-26 67-20 92-2l72 45c20-10 39-20 61-26l19-80c8-29 30-63 63-63l62 0c35 0 61 34 67 63l17 80c20 8 39 16 57 26l70-45c26-18 67-24 92 2l43 44c25 24 16 63 0 88l-43 73c8 17 16 35 22 52l82 22c29 6 62 27 62 62l0 63c0 33-31 60-62 64z m0-123c-2-2-8-4-14-6l-115-29-12-33c-4-14-12-29-20-45l-15-29 62-104c4-6 6-12 6-14l-41-41c-4 0-8 2-12 4l-101 65-33-16c-14-8-32-15-47-19l-33-12-26-115c-2-8-6-12-8-14l-56 0c0 2-4 8-6 14l-27 115-34 10c-17 6-35 13-50 21l-34 18-103-65c-4-4-8-6-12-6l-41 41c0 2 2 8 6 14l64 106-15 31c-8 14-14 27-18 41l-10 33-115 29c-8 2-13 4-15 6l0 59c0 0 0 0 0 0 2 0 5 4 9 4l119 25 10 35c6 14 12 30 20 45l15 31-64 106c-4 6-6 12-6 14l41 41c4 0 8-2 10-4l105-67 34 18c15 8 33 16 48 19l34 12 29 113c2 8 4 14 6 16l58 0c0 0 4-6 4-10l28-119 33-12c15-3 33-11 47-19l33-16 99 63c6 4 10 6 14 6l41-41c0-2-2-8-6-14l-62-104 15-31c10-15 16-31 22-47l10-35 115-25c8 0 14-6 14-8z m-438 217c-103 0-187-84-187-187 0-104 84-188 187-188 104 0 190 84 190 188 0 103-86 187-190 187z m0-312c-68 0-125 56-125 125 0 68 57 125 125 125 68 0 125-57 125-125 0-69-57-125-125-125z" horiz-adv-x="1000" />
<glyph glyph-name="star-3" unicode="&#xe89a;" d="m500 836l113-236 22-41 45-8 260-39-190-187-31-32 8-45 43-263-229 123-41 21-41-21-228-123 42 263 8 45-31 32-189 187 259 39 45 8 22 41 113 236m0 61c-27 0-53-16-64-41l-114-234-261-40c-26-3-49-21-57-46-10-26-2-53 16-71l191-191-45-264c-4-27 8-55 31-70 12-8 26-12 41-12 12 0 24 2 35 8l227 123 227-123c11-6 23-8 35-8 15 0 29 4 41 12 23 15 35 43 31 70l-45 264 192 191c17 18 25 45 15 71-8 25-31 43-56 46l-262 40-113 234c-12 25-38 41-65 41z" horiz-adv-x="1000" />
<glyph glyph-name="female-3" unicode="&#xe89b;" d="m609 913c-216 0-390-174-390-391 0-96 35-184 92-252l-123-125-133 133c-12 12-32 12-45 0-12-12-12-31 0-43l133-135-133-133c-12-14-12-33 0-45 12-12 31-12 43 0l135 133 132-133c12-13 32-13 43 0 14 12 14 31 0 43l-132 135 125 125c68-59 156-94 253-94 215 0 391 176 391 391 0 217-176 391-391 391z m0-719c-181 0-328 146-328 328 0 182 147 328 328 328 182 0 329-146 329-328 0-182-147-328-329-328z" horiz-adv-x="1000" />
<glyph glyph-name="male-3" unicode="&#xe89c;" d="m1000 891c0 6-2 12-6 16-4 4-10 6-15 6l-12 0c0 0 0 0-2 0l-285 0c-14 0-24-10-24-22l0-18c2-13 14-23 26-23l211 0-250-248c-69 57-157 92-252 92-215 0-391-176-391-391 0-217 176-391 391-391 216 0 390 174 390 391 0 98-35 186-93 254l250 250-2-215c0-11 9-23 23-21l16 0c13 0 23 8 23 19l0 289c0 0 0 0 0 0z m-279-588c0-181-149-330-330-330-182 0-328 149-328 330 0 180 146 328 328 328 181 0 330-148 330-328z" horiz-adv-x="1000" />
<glyph glyph-name="target-3" unicode="&#xe89d;" d="m969 444l-96 0c-14 181-160 328-342 342l0 95c0 18-13 32-31 32-18 0-31-14-31-32l0-95c-182-14-328-161-342-342l-96 0c-17 0-31-14-31-31 0-18 14-32 31-32l96 0c14-181 160-328 342-341l0-96c0-18 13-32 31-32 18 0 31 14 31 32l0 96c182 13 328 160 342 341l96 0c17 0 31 14 31 32 0 17-14 31-31 31z m-500 279l0-279-279 0c13 148 130 265 279 279z m-279-342l279 0 0-279c-149 14-266 131-279 279z m341-279l0 279 280 0c-14-148-131-265-280-279z m0 342l0 279c149-14 266-131 280-279z" horiz-adv-x="1000" />
<glyph glyph-name="volume-down-1" unicode="&#xe89e;" d="m639 848c-10 6-22 6-32-2l-314-246-103 0c-53 0-96-37-96-84l0-207c0-45 45-84 97-84l104 0 312-246c6-4 12-6 18-6 4 0 10 2 14 4 11 6 17 16 17 27l0 817c0 11-6 21-17 27z m-45-785l-272 219c-6 4-11 6-17 6l-114 0c-19 0-35 11-35 21l0 207c0 10 14 22 34 22l113 0c6 0 13 2 17 5l274 219z m178 510c-18 4-34-8-38-26-2-17 10-33 28-35 49-10 82-53 82-105 0-51-35-94-84-104-18-4-28-19-24-37 2-16 16-25 30-25 2 0 4 0 6 2 78 13 134 84 134 164 0 84-56 152-134 166z" horiz-adv-x="1000" />
<glyph glyph-name="volume-up-1" unicode="&#xe89f;" d="m561 848c-10 6-22 6-32-2l-314-246-104 0c-52 0-97-37-97-84l2-207c0-45 45-84 97-84l104 0 312-246c4-4 12-6 18-6 4 0 10 2 14 4 9 6 17 16 17 27l0 817c0 11-8 21-17 27z m-45-785l-272 219c-6 4-12 6-17 6l-114 0c-19 0-35 11-35 21l0 207c0 10 14 22 33 22l114 0c6 0 11 2 17 5l274 219z m312 344c0 84-56 152-135 166-17 4-33-8-37-26-2-17 10-33 26-35 50-10 84-53 84-105 0-51-35-94-84-104-18-4-28-19-26-37 4-16 18-25 32-25 2 0 3 0 5 2 79 13 135 84 135 164z m-41 287c-15 6-35-2-41-18-6-17 4-35 20-41 93-35 158-127 158-228 0-102-65-194-158-229-16-6-26-23-20-39 6-14 18-21 29-21 4 0 8 2 12 2 119 45 199 160 199 287 0 127-80 242-199 287z" horiz-adv-x="1000" />
<glyph glyph-name="mute-2" unicode="&#xe8a0;" d="m563 848c-10 6-24 6-34-2l-312-246-106 0c-52 0-95-37-95-84l2-207c0-45 43-84 95-84l106 0 310-246c6-4 12-6 18-6 6 0 10 2 16 4 9 6 15 16 15 27l0 817c0 11-6 21-15 27z m-47-785l-272 219c-4 4-10 6-15 6l-116 0c-19 0-33 11-33 21l-2 207c0 10 14 22 33 22l116 0c5 0 11 2 17 5l272 219z m357 350l102 103c13 12 13 31 0 43-12 14-32 14-43 0l-102-102-103 102c-12 14-32 14-43 0-14-12-14-31 0-43l101-103-101-104c-12-12-12-31 0-43 11-14 33-14 45 0l101 102 100-102c11-14 33-14 45 0 11 12 11 31 0 43z" horiz-adv-x="1000" />
<glyph glyph-name="user-group" unicode="&#xe8a1;" d="m729 96l-198 110c75 58 94 171 94 234l0 133c0 86-117 183-232 183-118 0-237-97-237-183l0-133c0-59 26-174 98-234l-201-110c0 0-53-23-53-53l0-78c0-29 23-53 53-53l676 0c29 0 52 24 52 53l0 78c0 32-52 53-52 53z m-10-121l-656 0 0 55c3 4 11 8 15 10 2 0 4 1 4 1l203 110c18 10 30 29 31 51 2 19-5 41-23 52-51 43-74 137-74 186l0 133c0 45 84 121 174 121 89 0 170-76 170-121l0-133c0-49-16-143-71-186-15-11-25-33-23-54 2-20 15-39 33-49l197-110c2 0 4-1 6-1 4-2 10-6 14-8z m228 277l-199 110c72 56 96 170 96 234l0 131c0 88-119 186-237 186-76 0-152-41-197-94 26-2 53-2 78-10 34 25 75 41 119 41 90 0 174-76 174-123l0-131c0-49-17-142-72-185-16-14-25-34-23-55 2-22 13-39 31-49l201-109c2-2 4-2 6-2 4-2 10-6 14-10l0-55-127 0c19-13 25-35 33-62l103 0c30 0 53 23 53 53l0 78c0 31-53 52-53 52z" horiz-adv-x="1000" />
<glyph glyph-name="glass" unicode="&#xe8a2;" d="m948 746q0-19-24-43l-353-353v-429h179q15 0 25-10t11-25-11-25-25-11h-500q-14 0-25 11t-11 25 11 25 25 10h179v429l-353 353q-24 24-24 43 0 13 10 21t21 9 24 3h786q13 0 24-3t21-9 10-21z" horiz-adv-x="1000" />
<glyph glyph-name="music" unicode="&#xe8a3;" d="m857 725v-625q0-28-19-50t-48-33-58-18-53-6-54 6-58 18-48 33-19 50 19 50 48 33 58 18 54 6q58 0 107-22v300l-429-132v-396q0-28-19-50t-48-33-58-18-53-6-54 6-58 18-48 33-19 50 19 50 48 34 58 17 54 6q58 0 107-21v539q0 17 10 32t28 19l464 143q7 3 16 3 22 0 38-16t15-38z" horiz-adv-x="857.1" />
<glyph glyph-name="search" unicode="&#xe8a4;" d="m643 386q0 103-74 176t-176 74-177-74-73-176 73-177 177-73 176 73 74 177z m286-465q0-29-22-50t-50-21q-30 0-50 21l-191 191q-100-69-223-69-80 0-153 31t-125 84-84 125-31 153 31 152 84 126 125 84 153 31 152-31 126-84 84-126 31-152q0-123-69-223l191-191q21-21 21-51z" horiz-adv-x="928.6" />
<glyph glyph-name="mail" unicode="&#xe8a5;" d="m929 11v428q-18-20-39-37-149-114-238-188-28-24-46-38t-48-27-57-13h-2q-26 0-57 13t-48 27-46 38q-88 74-238 188-21 17-39 37v-428q0-8 6-13t12-5h822q7 0 12 5t6 13z m0 586v14t-1 7-1 7-3 5-5 4-8 2h-822q-7 0-12-6t-6-12q0-94 82-159 108-85 224-177 4-2 20-16t25-21 25-18 28-15 24-5h2q11 0 24 5t28 15 25 18 25 21 20 16q116 92 224 177 30 24 56 65t26 73z m71 21v-607q0-37-26-63t-63-27h-822q-36 0-63 27t-26 63v607q0 37 26 63t63 26h822q37 0 63-26t26-63z" horiz-adv-x="1000" />
<glyph glyph-name="mail-alt" unicode="&#xe8a6;" d="m1000 454v-443q0-37-26-63t-63-27h-822q-36 0-63 27t-26 63v443q25-28 56-49 202-137 278-192 32-24 51-37t53-27 61-13h2q28 0 61 13t53 27 51 37q95 68 278 192 32 22 56 49z m0 164q0-44-27-84t-68-69q-210-146-262-181-5-4-23-17t-30-22-29-18-33-15-27-5h-2q-12 0-27 5t-33 15-29 18-30 22-23 17q-51 35-147 101t-114 80q-35 23-65 64t-31 77q0 43 23 72t66 29h822q36 0 62-26t27-63z" horiz-adv-x="1000" />
<glyph glyph-name="mail-squared" unicode="&#xe8a7;" d="m696 779q67 0 114-48t47-113v-536q0-66-47-113t-114-48h-535q-67 0-114 48t-47 113v536q0 66 47 113t114 48h535z m18-590v244q-17-20-35-31-19-12-74-48t-85-55q-55-38-91-38t-92 38q-26 18-79 52t-79 51q-7 5-19 16t-17 15v-244q0-22 16-38t37-15h465q22 0 38 15t15 38z m0 320q0 23-15 39t-38 16h-465q-22 0-37-15t-16-38q0-21 17-43t38-36q26-18 76-50t73-46q1-1 9-6t12-8 11-7 14-8 12-5 12-4 12-2 11 2 13 4 12 5 13 8 11 7 12 8 10 6l149 97q19 13 37 35t17 41z" horiz-adv-x="857.1" />
<glyph glyph-name="heart" unicode="&#xe8a8;" d="m500-79q-14 0-25 10l-348 336q-5 5-15 15t-31 36-38 55-30 67-13 77q0 123 71 192t196 70q34 0 70-12t67-33 54-38 42-38q20 20 42 38t54 38 67 33 70 12q125 0 196-70t71-192q0-123-128-251l-347-335q-10-10-25-10z" horiz-adv-x="1000" />
<glyph glyph-name="heart-empty" unicode="&#xe8a9;" d="m929 517q0 46-12 80t-31 55-46 33-52 18-55 4-62-14-62-36-48-40-34-34q-10-13-27-13t-27 13q-14 15-34 34t-48 40-62 36-62 14-55-4-52-18-46-33-31-55-12-80q0-93 105-198l324-312 324 312q105 105 105 198z m71 0q0-123-128-251l-347-335q-10-10-25-10t-25 10l-348 336q-5 5-15 15t-31 36-38 55-30 67-13 77q0 123 71 192t196 70q34 0 70-12t67-33 54-38 42-38q20 20 42 38t54 38 67 33 70 12q125 0 196-70t71-192z" horiz-adv-x="1000" />
<glyph glyph-name="star" unicode="&#xe8aa;" d="m929 489q0-12-15-27l-203-197 48-279q1-4 1-12 0-11-6-19t-17-9q-10 0-22 7l-251 132-250-132q-13-7-23-7-11 0-17 9t-6 19q0 4 1 12l48 279-203 197q-14 15-14 27 0 21 31 26l280 40 126 254q11 23 27 23t28-23l125-254 280-40q32-5 32-26z" horiz-adv-x="928.6" />
<glyph glyph-name="star-empty" unicode="&#xe8ab;" d="m634 290l171 165-235 35-106 213-105-213-236-35 171-165-41-235 211 111 211-111z m295 199q0-12-15-27l-203-197 48-279q1-4 1-12 0-28-23-28-10 0-22 7l-251 132-250-132q-13-7-23-7-11 0-17 9t-6 19q0 4 1 12l48 279-203 197q-14 15-14 27 0 21 31 26l280 40 126 254q11 23 27 23t28-23l125-254 280-40q32-5 32-26z" horiz-adv-x="928.6" />
<glyph glyph-name="star-half" unicode="&#xe8ac;" d="m464 832v-747l-250-132q-13-7-23-7-11 0-17 9t-6 19q0 4 1 12l48 279-203 197q-14 15-14 27 0 21 31 26l280 40 126 254q11 23 27 23z" horiz-adv-x="500" />
</font>
</defs>
</svg>
